查看: 30494|回复: 126

[炫音推荐] 钢琴王子理查德.克莱德曼 Richard Clayderman - New [05法国版分轨ape]

[复制链接]
发表于 2009-2-18 18:26:55 | 显示全部楼层 |阅读模式
Genre: Rock/Pop Albums, Classical CDs, Easy Listening, Rock
Year drive: Mar 24, 2005
Disc Manufacturer: Delphine Productions, Paris, France.
Duration: 00:38:47
Track Listing

1. Clayderman - Pour tout I'amour du monde



2. Clayderman - Alexandra Dream



3. Clayderman - Duet with Wladzia
4. Clayderman - Uuf Kya Jaadoo
5. Clayderman -  Du Fond de Nos Coeurs Brises
6. Clayderman -  Joyful Ritoumelle



7. Clayderman -  La Complainte de la Terre
8. Clayderman -  Comme une Bouteile a la Mer
9. Clayderman -  Wladzia n'est pas venue
10. Clayderman - Little Jo in the Forest
11. Clayderman - Te Souviens-tu ? (piano solo)
12. Clayderman - Good Morning Everybody !



13. Clayderman - Te Souviens-tu ?

--------------------------------------------------------------------------------

1. For All the Love in the World
2. Alexandra Dream
3. Duet With Wladzia
4. Uuf Kya Jaadoo
5. From Our Broken Hearts
6. Joyful Ritournelle
7. Earth and Tears (La Compliante de la Terre
8. Like a Bottle in the Sea
9. Wladzia Did Not Come
10. Little Jo in the Forest
11. Do You Remember?
12. Good Morning Everybody!
13. Do You Remember?

front 1.jpg
disc.jpg
back1.jpg
front 2.jpg
Exact Audio Copy V0.99 prebeta 4 from 23. January 2008


Отчёт EAC об извлечении, выполненном 23. января 2009, 2:03


Clayderman / New


Дисковод: LITE-ON DVDRW LH-20A1P Adapter: 0 ID: 1


Режим чтения : Достоверность
Использование точного потока : Да
Отключение кэша аудио : Да
Использование указателей C2 : Нет


Коррекция смещения при чтении : 6
Способность читать области Lead-in и Lead-out : Нет
Заполнение пропущенных сэмплов тишиной : Да
Удаление блоков с тишиной в начале и конце : Нет
При вычислениях CRC использовались нулевые сэмплы : Да
Интерфейс : Установленный внешний ASPI-интерфейс


Выходной формат : Внутренние WAV-операции
Формат сэмплов : 44.100 Гц; 16 бит; стерео


TOC извлечённого CD


Трек | Старт | Длительность | Начальный сектор | Конечный сектор
---------------------------------------------------------------------
1 | 0:00.00 | 2:54.68 | 0 | 13117
2 | 2:54.68 | 2:49.62 | 13118 | 25854
3 | 5:44.55 | 3:07.08 | 25855 | 39887
4 | 8:51.63 | 3:42.22 | 39888 | 56559
5 | 12:34.10 | 3:14.40 | 56560 | 71149
6 | 15:48.50 | 1:41.03 | 71150 | 78727
7 | 17:29.53 | 4:14.62 | 78728 | 97839
8 | 21:44.40 | 2:50.03 | 97840 | 110592
9 | 24:34.43 | 3:15.72 | 110593 | 125289
10 | 27:50.40 | 2:55.08 | 125290 | 138422
11 | 30:45.48 | 2:41.17 | 138423 | 150514
12 | 33:26.65 | 2:41.18 | 150515 | 162607
13 | 36:08.08 | 2:39.12 | 162608 | 174544


Характеристики диапазона извлечения и сообщения об ошибках


Выбранный диапазон


Имя файла X:\Clayderman - NEW\Clayderman - New.wav


Пиковый уровень 96.3 %
Качество диапазона 100.0 %
CRC копии 9820C9C6
Копирование... OK


Ошибок не произошло


Конец отчёта


一张融合了很多元素听起来非常舒服的轻音专辑,甚至想每首都给加上试听
分轨ape文件,其中四首分开上传。把五个链接一起下载就是整张专辑!

游客,如果您要查看本帖隐藏内容请回复,如果您想免回复、免金币,直接查看内容,请开通炫音VIP


[ 本帖最后由 devil.ace 于 2009-2-18 18:30 编辑 ]
发表于 2009-2-18 18:52:20 | 显示全部楼层
沙发哦,好久没坐沙发了!
回复 支持 反对

使用道具 举报

头像被屏蔽
发表于 2009-2-18 19:17:54 | 显示全部楼层
一张融合了很多元素听起来非常舒服的轻音专辑
回复 支持 反对

使用道具 举报

发表于 2009-2-19 16:56:52 | 显示全部楼层
刚下完一首单曲,专辑就来了.下了.谢谢楼主分享!
回复 支持 反对

使用道具 举报

发表于 2009-2-19 17:20:52 | 显示全部楼层
蛮喜欢这些曲子,谢谢分享
回复 支持 反对

使用道具 举报

发表于 2009-2-19 17:51:11 | 显示全部楼层
不错,很好听,收下了,谢谢分享。
回复 支持 反对

使用道具 举报

发表于 2009-2-19 19:24:56 | 显示全部楼层
钢琴王子的,不错,感谢分享。
回复 支持 反对

使用道具 举报

发表于 2009-2-19 21:07:08 | 显示全部楼层
回复 支持 反对

使用道具 举报

发表于 2009-2-19 21:16:39 | 显示全部楼层
超喜欢钢琴王子理查德.克莱德曼的作品,谢谢楼主分享
回复 支持 反对

使用道具 举报

发表于 2009-2-19 21:19:56 | 显示全部楼层
恩,喜欢这样的音乐,多谢楼主分享!
回复 支持 反对

使用道具 举报

发表于 2009-2-19 23:44:19 | 显示全部楼层
非常感谢楼主!精彩!
回复 支持 反对

使用道具 举报

发表于 2009-2-19 23:46:52 | 显示全部楼层
无人可以替代的RC,很高兴能听到他的NEW,他是该出原创音乐了!!!
回复 支持 反对

使用道具 举报

发表于 2009-2-19 23:53:44 | 显示全部楼层
喜欢理查德.克莱德曼的作品
回复 支持 反对

使用道具 举报

发表于 2009-2-20 00:45:51 | 显示全部楼层
鋼琴王子真的不簡單~~感謝大大的熱情提供
回复 支持 反对

使用道具 举报

发表于 2009-2-20 02:59:05 | 显示全部楼层
不错的一张专集,,,让人惬意 顶一下下
回复 支持 反对

使用道具 举报

您需要登录后才可以回帖 登录 | 立即注册

本版积分规则

手机版|炫音音乐论坛 ( 皖ICP备13017420号-3 )皖公网安备 34082502000069号

GMT+8, 2019-6-18 16:45 , Processed in 0.133873 second(s), 27 queries , Gzip On.

Powered by Discuz! X3.4

© 2004-2017 炫音音乐论坛

快速回复 返回顶部 返回列表