查看: 1223|回复: 8

[讨论] 请大侠们帮我看看我自己做的这CUE文件错在那里,谢谢!

[复制链接]
发表于 2013-10-10 23:11:27 | 显示全部楼层 |阅读模式
各位大侠帮我看看下面这个cue文件错在那里了,我刻录的时候老是说:载入cue期间出执误(行6),难道是第六行格式不对么

PERFORMER "莫文蔚"
TITLE "做自己(TOBE)"
REM GENRE
REM DATE 2011
REM DISCID D9114B0F
FILE "CDImage.wav" WAVE
  TRACK 01 AUDIO
    TITLE "爱自己"
    INDEX 01 00:00:00
  TRACK 02 AUDIO
    TITLE "他不爱我"
    INDEX 01 04:39:01
  TRACK 03 AUDIO
    TITLE "午夜前的十分钟"
    INDEX 01 08:37:13
  TRACK 04 AUDIO
    TITLE "想一个男生"
    INDEX 01 13:46:69
  TRACK 05 AUDIO
    TITLE "广岛之恋"
    INDEX 01 17:30:00
  TRACK 06 AUDIO
    TITLE "更衣室"
    INDEX 01 22:49:94
  TRACK 07 AUDIO
    TITLE "Snacks"
    INDEX 01 27:18:95
  TRACK 08 AUDIO
    TITLE "电台情歌"
    INDEX 01 31:47:31
  TRACK 09 AUDIO
    TITLE "信徒"
    INDEX 01 35:55:43
  TRACK 10 AUDIO
    TITLE "只有冰淇淋的烛光晚餐"
    INDEX 01 40:24:44
  TRACK 11 AUDIO
    TITLE "拆信"
    INDEX 01 44:24:07
  TRACK 12 AUDIO
    TITLE "Live For Romance"
    INDEX 01 49:25:08
发表于 2013-10-11 08:06:31 | 显示全部楼层
第六行FILE "CDImage.wav" WAVE,单看格式,似乎没问题,如果你的CDimage.wav是整轨的文件,而且文件名字也是CDImage.wav,你先用FOOBAR载入CUE文件看看,如果能显示分轨信息,而且播放正常,那就说明没问题.是否是刻录文件有毛病?或者,你的CDImage文件是APE或FLAC格式?
回复 支持 反对

使用道具 举报

发表于 2013-10-11 08:26:16 | 显示全部楼层
这行错误一般有三个原因:1、名字,两边一致。2、格式,两边不一致,3、有些播放器不支持CUE的文字编码
回复 支持 反对

使用道具 举报

发表于 2013-10-11 19:33:13 | 显示全部楼层
找个正确的cue比对一下就清楚了吧
回复 支持 反对

使用道具 举报

发表于 2013-10-11 20:51:09 | 显示全部楼层
不太懂,帮顶下。~
回复 支持 反对

使用道具 举报

发表于 2016-2-15 13:51:19 | 显示全部楼层
楼主问题解决没有啊
回复 支持 反对

使用道具 举报

发表于 2016-2-15 17:00:38 | 显示全部楼层
下载习惯了AAC。不懂CUE。楼主可以找别的专辑里的CUE来对比一下吗
回复 支持 反对

使用道具 举报

发表于 2019-8-7 23:03:45 | 显示全部楼层
楼主问题解决了吗?我也遇到类似问题了
回复 支持 反对

使用道具 举报

发表于 2019-8-8 00:27:18 | 显示全部楼层
我从新安装了foober2000,把所有的选项都选择安装,结果就没有问题了。。cue正常了。。。没搞明白,但是能用了,也就不纠结了。还是听歌吧。。。不过全装了多了一些设置,也不懂就不管它了。。。歌词出来了。。。是随歌曲下载的吗?还是因为联网,是互联网上的呢。
回复 支持 反对

使用道具 举报

您需要登录后才可以回帖 登录 | 立即注册

本版积分规则

手机版|炫音音乐论坛 ( 皖ICP备13017420号-3 )皖公网安备 34082502000069号

GMT+8, 2019-8-20 18:28 , Processed in 0.059214 second(s), 20 queries , Gzip On.

Powered by Discuz! X3.4

© 2004-2017 炫音音乐论坛

快速回复 返回顶部 返回列表