查看: 11482|回复: 378

[沙发音乐] 【原创】日本吉他天王木村好夫-演歌ギター 3【WAV整轨/百度】

  [复制链接]
发表于 2014-11-5 10:55:07 | 显示全部楼层 |阅读模式
各位会员请认真回复,尊重发布者的劳动,不要使用通用回复、无意义回复及恶意灌水,如若发现将作扣分或禁言处理。该专辑为本人辛苦原创,未经本人同意严禁转载!每张都添加3%恢复记录。









专辑名称:木村好夫演歌ギター 3
专辑艺人:木村好夫
唱片公司:New Century Workshop
唱片编号:XR0672
发行时间:2008年
资源类型:WAV/CUE/LOG

专辑介绍

日本吉他天王-木村好夫的演奏技巧精湛但絕不刻意炫技,不疾不徐,盡顯一代大師的絕佳風範。King發燒級錄音效果,吉他線條呈現出清晰飽滿、晶瑩通透、飄逸輕靈的聽覺感受,可以說是吉他演奏的示範級錄音。
  日本地位最崇高的「吉他天皇」木村好夫,除了以精湛出色的吉他演奏技巧詮釋日本演歌獲得廣大樂迷的喜愛之外,他的編曲與演奏風格更對整個亞洲音樂的發展具有關鍵性的影響,木村好夫的演奏早已成為一個時代的共同回憶。在許多老資格的發燒友心中,木村好夫更是「發燒」的代名詞,只要是他的專輯必定是錄音絕佳的作品。
  許多知名的吉他演奏家經常是以表現高難度的演奏技巧來讓人折服,木村好夫則不然,他總是步調優雅不疾不徐,表現輕快愉悅的曲子時不會顯得過動浮躁;詮釋抒情優美的歌曲則沒有太多的憂傷煽情。這張由 Enrich Music 發行的精選大碟,收錄了樂迷們最耳熟的「柳?藍調」、「瀨戶之新娘」、「北國之春」、「港町藍調」等十五首經典演出,特別取得日本 King Music 原始母帶精心製作,音質純淨,並以全新的豪華紙板硬殼包裝,更顯珍藏的價值。在整張精選集錄音中,吉他的音色通透自然、清晰明亮而又溫暖飽滿,將這些宛如星空中最閃亮的星光一般的經典演繹得更加不朽!

专辑曲目

01. 銀座の恋の物語    [0:03:03.37]
02. 有樂町で逢いましよう    [0:03:03.30]
03. 森 の小徑    [0:02:49.08]
04. 東京のバスガール    [0:03:21.00]
05. ああ上野えき    [0:02:45.70]
06. ネオソ川    [0:02:34.62]
07. ダンスB−チイーの夜    [0:03:21.05]
08. 上を向いて步こう    [0:03:35.25]
09. 湖畔の宿    [0:03:26.38]
10. あの娘たすねて    [0:03:26.12]
11. 東京ブギウギ    [0:03:17.73]
12. 黃色いさくらんほ    [0:03:07.30]
13. 若いふたり    [0:03:05.37]
14. 淚の乾杯    [0:02:44.08]
15. 雨の中の二人    [0:02:33.17]
16. 函館の女    [0:02:59.25]

游客,如果您要查看本帖隐藏内容请回复,如果您想免回复、免金币,直接查看内容,请开通炫音VIP




本專輯版權屬唱片公司所有,只可用於個人試聽交流使用,
禁用於任何商業用途或公開傳播的場合,請在試聽後24小時內刪除,
本人不承擔與之相關的一切法律責任.
如您喜歡此專輯的內容,請購買正版專輯!
  1. Exact Audio Copy V1.0 beta 3 from 29. August 2011

  2. EAC extraction logfile from 4. November 2014, 11:40

  3. 木村好夫 / 木村好夫演歌ギター 3

  4. Used drive  : SlimtypeDVD A  DS8A5SH   Adapter: 0  ID: 1

  5. Read mode               : Secure
  6. Utilize accurate stream : Yes
  7. Defeat audio cache      : Yes
  8. Make use of C2 pointers : No

  9. Read offset correction                      : 6
  10. Overread into Lead-In and Lead-Out          : No
  11. Fill up missing offset samples with silence : Yes
  12. Delete leading and trailing silent blocks   : No
  13. Null samples used in CRC calculations       : Yes
  14. Used interface                              : Native Win32 interface for Win NT & 2000

  15. Used output format : Internal WAV Routines
  16. Sample format      : 44.100 Hz; 16 Bit; Stereo


  17. TOC of the extracted CD

  18.      Track |   Start  |  Length  | Start sector | End sector
  19.     ---------------------------------------------------------
  20.         1  |  0:00.00 |  3:03.37 |         0    |    13761   
  21.         2  |  3:03.37 |  3:03.30 |     13762    |    27516   
  22.         3  |  6:06.67 |  2:49.08 |     27517    |    40199   
  23.         4  |  8:56.00 |  3:21.00 |     40200    |    55274   
  24.         5  | 12:17.00 |  2:45.70 |     55275    |    67719   
  25.         6  | 15:02.70 |  2:34.62 |     67720    |    79331   
  26.         7  | 17:37.57 |  3:21.05 |     79332    |    94411   
  27.         8  | 20:58.62 |  3:35.25 |     94412    |   110561   
  28.         9  | 24:34.12 |  3:26.38 |    110562    |   126049   
  29.        10  | 28:00.50 |  3:26.12 |    126050    |   141511   
  30.        11  | 31:26.62 |  3:17.73 |    141512    |   156359   
  31.        12  | 34:44.60 |  3:07.30 |    156360    |   170414   
  32.        13  | 37:52.15 |  3:05.37 |    170415    |   184326   
  33.        14  | 40:57.52 |  2:44.08 |    184327    |   196634   
  34.        15  | 43:41.60 |  2:33.17 |    196635    |   208126   
  35.        16  | 46:15.02 |  2:59.25 |    208127    |   221576   


  36. Range status and errors

  37. Selected range

  38.      Filename F:\名碟鉴赏\木村好夫 - 演歌ギター 懐かしのメロディー3\木村好夫 - 木村好夫演歌ギター 3.wav

  39.      Peak level 100.0 %
  40.      Extraction speed 4.4 X
  41.      Range quality 100.0 %
  42.      Copy CRC 801049C2
  43.      Copy OK

  44. No errors occurred

  45. End of status report
复制代码

评分

参与人数 3音符 +66 炫币 +76 收起 理由
ynsy + 1 + 1 给力!
秋风 + 60 赞一个!

查看全部评分

发表于 2014-11-5 13:06:04 | 显示全部楼层
木村好夫演奏清新、动听,谢谢分享木村好夫演歌ギター 3,辛苦了。
回复 支持 反对

使用道具 举报

发表于 2014-11-5 13:13:10 | 显示全部楼层
木村好夫演奏清新、动听,
回复 支持 反对

使用道具 举报

发表于 2014-11-5 13:39:20 | 显示全部楼层
好听、谢谢楼主!
回复 支持 反对

使用道具 举报

发表于 2014-11-5 13:40:33 | 显示全部楼层
好听、谢谢楼主!
回复 支持 反对

使用道具 举报

发表于 2014-11-5 14:56:05 | 显示全部楼层
很喜欢,谢谢分享。
回复 支持 反对

使用道具 举报

发表于 2014-11-5 15:22:15 | 显示全部楼层
非常喜欢木村好夫的吉他专辑!   又有精神食粮了!感谢版主!辛苦!@
回复 支持 反对

使用道具 举报

发表于 2014-11-5 15:46:44 | 显示全部楼层
音色通透自然、清晰明亮而又溫暖飽滿
回复 支持 反对

使用道具 举报

发表于 2014-11-5 16:20:29 | 显示全部楼层
悠扬动听,百听不腻 ,感谢分享。
回复 支持 反对

使用道具 举报

发表于 2014-11-5 16:57:48 | 显示全部楼层
大爱木村好夫
わたしの城下町  当年百听不厌,一种淡淡的日本小清新
回复 支持 反对

使用道具 举报

发表于 2014-11-5 17:05:14 | 显示全部楼层
木村好夫的音乐 好听
回复 支持 反对

使用道具 举报

发表于 2014-11-5 17:20:04 | 显示全部楼层
感谢楼主慷慨木村好夫吉他音乐,辛苦了。
回复 支持 反对

使用道具 举报

发表于 2014-11-5 18:30:55 | 显示全部楼层
木村好夫演奏的吉他曲都很抒情好听,配器也很喜欢。
回复 支持 反对

使用道具 举报

发表于 2014-11-5 19:00:03 | 显示全部楼层
日本吉他天王木村好夫-演歌ギター
回复 支持 反对

使用道具 举报

发表于 2014-11-5 19:05:59 | 显示全部楼层
谢谢分享。。。。。。。。。。。。。。。。。。。
回复 支持 反对

使用道具 举报

您需要登录后才可以回帖 登录 | 立即注册

本版积分规则

手机版|炫音音乐论坛 ( 皖ICP备13017420号-3 )皖公网安备 34082502000069号

GMT+8, 2019-9-23 02:22 , Processed in 0.108469 second(s), 27 queries , Gzip On.

Powered by Discuz! X3.4

© 2004-2017 炫音音乐论坛

快速回复 返回顶部 返回列表