查看: 16346|回复: 420

[原创] 【原创】小提琴大师克雷默-舒伯特波兰舞曲小步舞曲 【WAV整轨/百度】

  [复制链接]
发表于 2015-4-1 13:16:51 | 显示全部楼层 |阅读模式
本帖最后由 断剑残阳123 于 2015-4-23 08:29 编辑

各位会员请认真回复,尊重发布者的劳动,不要使用通用回复、无意义回复及恶意灌水,如若发现将作扣分或禁言处理。该专辑为本人辛苦原创,未经本人同意严禁转载!每张都添加3%恢复记录。











专辑名称:Schubert Soiree
专辑艺人:Chamber Orchestra of Europe, Gidon Kremer
唱片公司:DG
唱片编号:437535GH
发行时间:1993年
资源类型:WAV/CUE/LOG

专辑介绍

前苏联小提琴家,大卫·奥伊斯特拉赫的学生, 1966年获比利时伊丽莎白国际比赛第三名,从此开始扬名。1969年参加蒙特利尔国际比赛获第二名,同年在帕格尼国际比赛中夺魁,次年在柴科夫斯基国际比赛中再夺魁,轰动世界。克雷默的舞台演出因卡拉扬与之合作布拉姆斯协奏曲而达到高潮,1980年移居西方。克雷默的指法轻松灵敏,善于表现艰深的乐段,他演奏的巴托克、普罗科菲耶夫、雅纳切克,都显示出极高深的技巧。他与阿格里奇合作的贝多芬奏鸣曲和与梅赛伯格合作的舒伯特奏鸣曲等,也获佳评。

专辑曲目

01. Schubert: Polonaise for Violin and String Orchestra In B Flat Major, D580    [0:05:47.00]
02. Schubert: German Dances D89 - 1. Deutscher Tanz  in C Major, Trio I - Trio II    [0:03:21.62]
03. Schubert: German Dances D89 - 2. Deutscher Tanz  in G Major, Trio I - Trio II    [0:03:35.38]
04. Schubert: German Dances D89 - 3. Deutscher Tanz  in D Major, Trio    [0:01:54.00]
05. Schubert: German Dances D89 - 4. Deutscher Tanz  in F Major    [0:00:48.00]
06. Schubert: German Dances D89 - 5. Deutscher Tanz  in C Major, Trio I - Trio II - Coda    [0:04:58.50]
07. Schubert: Rondo for Violin and String Orchestra In A Major D438, Adagio - Allegro giusto    [0:14:27.00]
08. Schubert: Minuets, D89 - 1. Minuets  in C Major, Trio I - Trio II    [0:03:50.00]
09. Schubert: Minuets, D89 - 2. Minuets  in F Major    [0:00:52.00]
10. Schubert: Minuets, D89 - 3. Minuets  in D Major, Trio I - Trio II    [0:05:49.50]
11. Schubert: Minuets, D89 - 4. Minuets  in G Major    [0:00:55.37]
12. Schubert: Minuets, D89 - 5. Minuets  in C Major, Trio I - Trio II    [0:03:59.63]
13. Concerto Movment for Violin and Orchestrar in D Major D345, Adagio - Allegro    [0:10:44.00]

游客,如果您要查看本帖隐藏内容请回复,如果您想免回复、免金币,直接查看内容,请开通炫音VIP




本專輯版權屬唱片公司所有,只可用於個人試聽交流使用,
禁用於任何商業用途或公開傳播的場合,請在試聽後24小時內刪除,
本人不承擔與之相關的一切法律責任.
如您喜歡此專輯的內容,請購買正版專輯!
  1. Exact Audio Copy V1.0 beta 3 from 29. August 2011

  2. EAC extraction logfile from 10. July 2014, 20:29

  3. Chamber Orchestra of Europe, Gidon Kremer / Schubert Soiree

  4. Used drive  : SlimtypeDVD A  DS8A5SH   Adapter: 0  ID: 1

  5. Read mode               : Secure
  6. Utilize accurate stream : Yes
  7. Defeat audio cache      : Yes
  8. Make use of C2 pointers : No

  9. Read offset correction                      : 6
  10. Overread into Lead-In and Lead-Out          : No
  11. Fill up missing offset samples with silence : Yes
  12. Delete leading and trailing silent blocks   : No
  13. Null samples used in CRC calculations       : Yes
  14. Used interface                              : Native Win32 interface for Win NT & 2000

  15. Used output format : Internal WAV Routines
  16. Sample format      : 44.100 Hz; 16 Bit; Stereo


  17. TOC of the extracted CD

  18.      Track |   Start  |  Length  | Start sector | End sector
  19.     ---------------------------------------------------------
  20.         1  |  0:00.33 |  5:47.00 |        33    |    26057   
  21.         2  |  5:47.33 |  3:21.62 |     26058    |    41194   
  22.         3  |  9:09.20 |  3:35.38 |     41195    |    57357   
  23.         4  | 12:44.58 |  1:54.00 |     57358    |    65907   
  24.         5  | 14:38.58 |  0:48.00 |     65908    |    69507   
  25.         6  | 15:26.58 |  4:58.50 |     69508    |    91907   
  26.         7  | 20:25.33 | 14:27.00 |     91908    |   156932   
  27.         8  | 34:52.33 |  3:50.00 |    156933    |   174182   
  28.         9  | 38:42.33 |  0:52.00 |    174183    |   178082   
  29.        10  | 39:34.33 |  5:49.50 |    178083    |   204307   
  30.        11  | 45:24.08 |  0:55.37 |    204308    |   208469   
  31.        12  | 46:19.45 |  3:59.63 |    208470    |   226457   
  32.        13  | 50:19.33 | 10:44.00 |    226458    |   274757   


  33. Range status and errors

  34. Selected range

  35.      Filename F:\名碟鉴赏\Chamber Orchestra of Europe Gidon Kremer - Schubert Soiree\Chamber Orchestra of Europe, Gidon Kremer - Schubert Soiree.wav

  36.      Peak level 97.7 %
  37.      Extraction speed 3.0 X
  38.      Range quality 100.0 %
  39.      Copy CRC 2ECF0815
  40.      Copy OK

  41. No errors occurred

  42. End of status report
复制代码

评分

参与人数 1音符 +30 炫币 +30 收起 理由
秋风 + 30 + 30 赞一个!

查看全部评分

发表于 2015-4-1 13:20:41 | 显示全部楼层
喜欢小提琴协奏!
回复 支持 反对

使用道具 举报

发表于 2015-4-1 14:23:02 | 显示全部楼层
优美无比的作品!
回复 支持 反对

使用道具 举报

发表于 2015-4-1 15:07:27 | 显示全部楼层
优美无比小提琴协奏!
回复 支持 反对

使用道具 举报

发表于 2015-4-1 18:27:04 | 显示全部楼层
太经典了非常感谢好碟
回复 支持 反对

使用道具 举报

发表于 2015-4-1 18:37:54 | 显示全部楼层
不错 O(∩_∩)O谢谢
回复 支持 反对

使用道具 举报

头像被屏蔽
发表于 2015-4-1 20:10:33 | 显示全部楼层
提示: 作者被禁止或删除 内容自动屏蔽
回复 支持 反对

使用道具 举报

发表于 2015-4-1 20:15:04 | 显示全部楼层
支持原抓,感谢楼主无私分享!
回复 支持 反对

使用道具 举报

发表于 2015-4-1 20:19:40 | 显示全部楼层
优美无比的作品!
回复 支持 反对

使用道具 举报

发表于 2015-4-1 20:21:04 | 显示全部楼层
大师的东西,值得聆听和收藏!谢谢分享
回复 支持 反对

使用道具 举报

发表于 2015-4-1 20:37:17 | 显示全部楼层
感谢分享小提琴大师克雷默-舒伯特波兰舞曲小步舞曲
回复 支持 反对

使用道具 举报

发表于 2015-4-1 20:57:17 | 显示全部楼层
多谢分享精华资源!
回复 支持 反对

使用道具 举报

发表于 2015-4-1 21:09:23 | 显示全部楼层
绝佳上品!!!!
回复 支持 反对

使用道具 举报

发表于 2015-4-1 22:03:46 | 显示全部楼层
Kremer的碟子,全收。
回复 支持 反对

使用道具 举报

发表于 2015-4-1 22:07:04 | 显示全部楼层
优美无比的作品
回复 支持 反对

使用道具 举报

您需要登录后才可以回帖 登录 | 立即注册

本版积分规则

手机版|炫音音乐论坛 ( 皖ICP备13017420号-3 )皖公网安备 34082502000069号

GMT+8, 2020-6-6 09:51 , Processed in 0.107361 second(s), 30 queries , Gzip On.

Powered by Discuz! X3.4

© 2004-2017 炫音音乐论坛

快速回复 返回顶部 返回列表