查看: 7143|回复: 138

[新世纪音乐] 【原创】音效大师丹.吉布森Dan Gilson - Mysterious places【WAV整轨/百度】

  [复制链接]
发表于 2015-12-16 13:08:02 | 显示全部楼层 |阅读模式
本帖最后由 断剑残阳123 于 2015-12-16 13:43 编辑

压缩包内含WAV/CUE/LOG(抓轨截图)/600dpi全套高清大图

IMG_20151213_0001.jpg
IMG_20151213_0002.jpg
IMG_20151213_0003.jpg
IMG_20151213_00016.jpg
IMG_20151213_0004.jpg
IMG_20151213_0005.jpg
IMG_20151213_0006.jpg
IMG_20151213_0007.jpg
IMG_20151213_0008.jpg
IMG_20151213_0009.jpg
IMG_20151213_0010.jpg
IMG_20151213_0011.jpg
IMG_20151213_0012.jpg
IMG_20151213_0013.jpg
IMG_20151213_0014.jpg
IMG_20151213_0015.jpg
捕获.jpg

Dan Gilson - Mysterious places

让我们跟随唐纳德.权的美妙音乐去一个神秘的地方,音效师丹.吉布森,蒂.威廉姆.吉布森,斯科特.康诺普和约翰.帕特森将自然界的声响,钜细靡遗的纪录下来,作曲家唐纳德.权将这些大自然的声音融入他的乐曲当中,营造出空灵纯净的音场效果。

1. The Pyramids (Egypt) 7:24
矗立在埃及沙漠中吉萨的三座大金字塔建于4000年前,它们一直都是有史以来最宏大的建筑。

2. Ankgor Wat (Cambodia) 5:43
柬埔寨吴哥窟,中国的万里长城、印度的泰姬陵、印尼婆浮屠,位列世界四大建筑奇迹。

3. Stonehenge (England) 7:15
在漫长的年代里,英格兰的巨石阵犹如强劲的磁铁,一直吸引着人们的目光。许多人更愿意相信,这是远古祖先有意留给后人的一个巨大谜题。

4. Machu Picchu (Peru) 7:30
秘鲁马丘比丘古庙位于一座非常美丽的高山上, 该庙可能是印加帝国全盛时期最辉煌的城市建筑,是世界上最最美的石方工程。

5. Delphi (Greece) 5:42
德而菲位於希腊中部, 是Parnassus山脉的一部份. 在古希腊(Ancient 时期), 这个地方是太阳神阿波罗(Apollo)的神殿, 也是神谕(Oracle)祭祀的所在地。


6. Chichen Itza (Mexico) 6:05
Chichen Itza,是古玛雅文化历史最有看点的城市遗址。它的鼎盛时期是公元600-1300年,曾一度是玛雅的都城。

7. The Great Wall (China) 7:14
长城是中国的象征,它像一条巨龙横卧在华北,长达六千多公里。长城始建于两千多年前的秦始皇时代,现在是中外游客向往的旅游胜地。

8. Easter Island (Chile) 5:16
智利的复活节岛位于太平洋东南部,以神秘巨像名闻遐迩。岛上有600多尊面对大海的古代巨大半身石雕像。

01. The pyramids (Egypt)    [0:07:25.46]
02. Ankgor wat (Cambodia)    [0:05:32.26]
03. Stonehenge (England)    [0:07:14.38]
04. Machu picchu (Peru)    [0:07:27.74]
05. Delphi (Greece)    [0:05:42.02]
06. Chich'en it'z a (Mexico)    [0:06:06.71]
07. The great wall (China)    [0:07:14.55]
08. Easter island (Chile)    [0:05:18.59]

游客,如果您要查看本帖隐藏内容请回复,如果您想免回复、免金币,直接查看内容,请开通炫音VIP


解压密码:
请点击此处下载

请先注册会员后在进行下载

已注册会员,请先登录后下载

文件名称:mm.rar 
下载次数:206  文件大小:80 Bytes  售价:10金币 [记录]
下载权限: 不限   VIP会员打折   [购买VIP]   [充值金币]



  1. Exact Audio Copy V1.1 from 23. June 2015

  2. EAC 抓取日志文件从13. 十二月 2015, 10:27

  3. Dan Gilson / Mysterious places

  4. 使用驱动器  :TSSTcorpCDDVDW SH-224DB   Adapter: 1  ID: 0

  5. 读取模式      : 可靠Secure
  6. 使用精确流     : 是
  7. 清空音频缓存    : 是
  8. 使用 C2 指示器 : 否

  9. 读取偏移校正:               : 6
  10. 读取 Lead-In 和 Lead-Out : 否
  11. 用静音填充抓取中丢失偏移的采样       : 是
  12. 去除首尾静音块               : 否
  13. 在CRC 计算中使用了空样本       : 是
  14. 已用接口                  : Win NT 及 2000 本地 Win32 接口

  15. 所用输出模式: : 内部 WAV 函数
  16. 样本格式    : 44.100 Hz; 16 Bit; 立体声


  17. 已抓取 CD 的 TOC

  18.      音轨 |    起始    |    长度    |  起始扇区  |  结束扇区  
  19.     --------------------------------------------
  20.       1 |  0:00.00 |  7:25.46 |      0 |  33420
  21.       2 |  7:25.46 |  5:32.26 |  33421 |  58346
  22.       3 | 12:57.72 |  7:14.38 |  58347 |  90934
  23.       4 | 20:12.35 |  7:27.74 |  90935 | 124533
  24.       5 | 27:40.34 |  5:42.02 | 124534 | 150185
  25.       6 | 33:22.36 |  6:06.71 | 150186 | 177706
  26.       7 | 39:29.32 |  7:14.55 | 177707 | 210311
  27.       8 | 46:44.12 |  5:18.59 | 210312 | 234220


  28. 范围状态及错误

  29. 已选择范围

  30.      文件名 F:\新世纪音乐\Dan Gilson - Mysterious places\Dan Gilson - Mysterious places.wav

  31.      峰值电平 75.8 %
  32.      抓取速度 4.1 X
  33.      范围质量 100.0 %
  34.      复制 CRC B0BFAE0F
  35.      复制成功

  36. 没有错误发生


  37. AccurateRip 摘要

  38. 音轨  1  精确地校准抓取  1)  [19489DF3]  (AR v2)
  39. 音轨  2  精确地校准抓取  1)  [84BEBAA8]  (AR v2)
  40. 音轨  3  精确地校准抓取  1)  [526DA67E]  (AR v2)
  41. 音轨  4  精确地校准抓取  1)  [90D65559]  (AR v2)
  42. 音轨  5  精确地校准抓取  1)  [0C76DE7D]  (AR v2)
  43. 音轨  6  精确地校准抓取  1)  [F8B495FA]  (AR v2)
  44. 音轨  7  精确地校准抓取  1)  [702AAFE3]  (AR v2)
  45. 音轨  8  精确地校准抓取  1)  [93173F7A]  (AR v2)

  46. 所有音轨精确校准抓取

  47. 状态报告结尾

  48. ---- CUETools DB Plugin V2.1.6

  49. [CTDB TOCID: 7_xnq_0qM00PoCAgBMUlUkZ9Asw-] database access error: 无法解析此远程名称: 'db.cuetools.net'


  50. ==== 记录校验日志 745BA5F60632C15805342310663C6D37EBCD602058D292EA03180E6BB3E60482 ====
复制代码

评分

参与人数 1音符 +50 炫币 +60 收起 理由
秋风 + 50 + 60 赞一个!

查看全部评分

发表于 2015-12-16 14:27:24 | 显示全部楼层
谢谢分享!!!!
回复 支持 反对

使用道具 举报

发表于 2015-12-16 15:14:58 | 显示全部楼层
正啊!谢谢分享!!!
回复 支持 反对

使用道具 举报

发表于 2015-12-16 16:06:19 | 显示全部楼层
谢谢分享优美音乐!
回复 支持 反对

使用道具 举报

发表于 2015-12-16 16:27:36 | 显示全部楼层
大师之作~感谢分享…………
回复 支持 反对

使用道具 举报

发表于 2015-12-16 16:29:24 | 显示全部楼层
好音乐,谢谢楼主
回复 支持 反对

使用道具 举报

发表于 2015-12-16 16:33:17 | 显示全部楼层
感谢分享美妙神秘的音乐
回复 支持 反对

使用道具 举报

发表于 2015-12-16 17:01:12 | 显示全部楼层
谢谢分享!!!
回复 支持 反对

使用道具 举报

发表于 2015-12-16 17:34:01 | 显示全部楼层
神秘的氛围节拍!!
回复 支持 反对

使用道具 举报

发表于 2015-12-16 17:54:23 | 显示全部楼层
绘形绘色赏心悦目
感谢楼主
回复 支持 反对

使用道具 举报

发表于 2015-12-16 17:55:22 | 显示全部楼层
谢谢分享....
回复 支持 反对

使用道具 举报

发表于 2015-12-16 18:00:09 | 显示全部楼层
非常感谢提供分享!
回复 支持 反对

使用道具 举报

发表于 2015-12-16 18:56:08 | 显示全部楼层
谢谢分享优美音乐!
回复 支持 反对

使用道具 举报

发表于 2015-12-16 19:18:48 | 显示全部楼层
欣赏一下。。。有个拼写错误,丹·吉布森 应为 Dan Gibson。。。
回复 支持 反对

使用道具 举报

头像被屏蔽
发表于 2015-12-16 19:25:44 | 显示全部楼层
提示: 作者被禁止或删除 内容自动屏蔽
回复 支持 反对

使用道具 举报

您需要登录后才可以回帖 登录 | 立即注册

本版积分规则

手机版|炫音音乐论坛 ( 皖ICP备13017420号-3 )皖公网安备 34082502000069号

GMT+8, 2018-8-19 17:57 , Processed in 0.260750 second(s), 18 queries , Gzip On, File On.

Powered by Discuz! X3.4

© 2004-2017 炫音音乐论坛

快速回复 返回顶部 返回列表