查看: 6567|回复: 155

[民歌] 【原创】张也 - 20世纪中华歌坛名人百集珍藏版合集【WAV整轨/套图/百度】

  [复制链接]
发表于 2015-12-27 09:47:51 | 显示全部楼层 |阅读模式
IMG_20151204_0028.jpg
IMG_20151204_0029.jpg
IMG_20151204_0030.jpg
IMG_20151204_0031.jpg
IMG_20151204_0032.jpg
IMG_20151204_0033.jpg
IMG_20151204_0034.jpg
IMG_20151204_0035.jpg
IMG_20151204_0036.jpg
捕获.jpg

张也 - 20世纪中华歌坛名人百集珍藏版合集

01. 高天上流云    [0:03:54.73]
02. 万事如意    [0:03:36.25]
03. 人间第一情    [0:03:35.47]
04. 平安大道    [0:04:14.15]
05. 这一片晴空    [0:03:23.10]
06. 同是你我他    [0:04:03.50]
07. 阿青哥的小白船    [0:03:10.73]
08. 小白菜    [0:05:14.17]
09. 拷红    [0:04:43.73]
10. 你好吧,亲亲的爱人    [0:05:02.00]
11. 说不尽的乡情    [0:04:16.07]
12. 世纪的交响    [0:05:59.08]
13. 走进新时代    [0:04:04.62]

游客,如果您要查看本帖隐藏内容请回复,如果您想免回复、免金币,直接查看内容,请开通炫音VIP


请点击此处下载

请先注册会员后在进行下载

已注册会员,请先登录后下载

文件名称:密码.rar 
下载次数:164  文件大小:99 Bytes  售价:5金币 [记录]
下载权限: 不限   VIP会员打折   [购买VIP]   [充值金币]



  1. Exact Audio Copy V1.1 from 23. June 2015

  2. EAC 抓取日志文件从4. 十二月 2015, 16:56

  3. 张也 / 20世纪中华歌坛名人百集珍藏版合集

  4. 使用驱动器  :TSSTcorpCDDVDW SH-224DB   Adapter: 1  ID: 0

  5. 读取模式      : 可靠Secure
  6. 使用精确流     : 是
  7. 清空音频缓存    : 是
  8. 使用 C2 指示器 : 否

  9. 读取偏移校正:               : 6
  10. 读取 Lead-In 和 Lead-Out : 否
  11. 用静音填充抓取中丢失偏移的采样       : 是
  12. 去除首尾静音块               : 否
  13. 在CRC 计算中使用了空样本       : 是
  14. 已用接口                  : Win NT 及 2000 本地 Win32 接口

  15. 所用输出模式: : 内部 WAV 函数
  16. 样本格式    : 44.100 Hz; 16 Bit; 立体声


  17. 已抓取 CD 的 TOC

  18.      音轨 |    起始    |    长度    |  起始扇区  |  结束扇区  
  19.     --------------------------------------------
  20.       1 |  0:00.32 |  3:54.73 |     32 |  17654
  21.       2 |  3:55.30 |  3:36.25 |  17655 |  33879
  22.       3 |  7:31.55 |  3:35.47 |  33880 |  50051
  23.       4 | 11:07.27 |  4:14.15 |  50052 |  69116
  24.       5 | 15:21.42 |  3:23.10 |  69117 |  84351
  25.       6 | 18:44.52 |  4:03.50 |  84352 | 102626
  26.       7 | 22:48.27 |  3:10.73 | 102627 | 116949
  27.       8 | 25:59.25 |  5:14.17 | 116950 | 140516
  28.       9 | 31:13.42 |  4:43.73 | 140517 | 161814
  29.      10 | 35:57.40 |  5:02.00 | 161815 | 184464
  30.      11 | 40:59.40 |  4:16.07 | 184465 | 203671
  31.      12 | 45:15.47 |  5:59.08 | 203672 | 230604
  32.      13 | 51:14.55 |  4:04.62 | 230605 | 248966


  33. 范围状态及错误

  34. 已选择范围

  35.      文件名 F:\华语\张也 - 20世纪中华歌坛名人百集珍藏版合集\张也 - 20世纪中华歌坛名人百集珍藏版合集.wav

  36.      峰值电平 100.0 %
  37.      抓取速度 2.3 X
  38.      范围质量 100.0 %
  39.      复制 CRC 52B1611B
  40.      复制成功

  41. 没有错误发生


  42. AccurateRip 摘要

  43. 音轨  1  精确地校准抓取  1)  [F226ECBA]  (AR v2)
  44. 音轨  2  精确地校准抓取  1)  [886C699E]  (AR v2)
  45. 音轨  3  精确地校准抓取  1)  [AA8289DA]  (AR v2)
  46. 音轨  4  精确地校准抓取  1)  [4270602F]  (AR v2)
  47. 音轨  5  精确地校准抓取  1)  [B7699179]  (AR v2)
  48. 音轨  6  精确地校准抓取  1)  [71FA41F3]  (AR v2)
  49. 音轨  7  精确地校准抓取  1)  [27254F4E]  (AR v2)
  50. 音轨  8  精确地校准抓取  1)  [0B0F80A7]  (AR v2)
  51. 音轨  9  精确地校准抓取  1)  [68F80FBC]  (AR v2)
  52. 音轨 10  精确地校准抓取  1)  [0103193E]  (AR v2)
  53. 音轨 11  精确地校准抓取  1)  [355E55A8]  (AR v2)
  54. 音轨 12  精确地校准抓取  1)  [2D8F0BD4]  (AR v2)
  55. 音轨 13  精确地校准抓取  1)  [C59097E6]  (AR v2)

  56. 所有音轨精确校准抓取

  57. 状态报告结尾

  58. ---- CUETools DB Plugin V2.1.6

  59. [CTDB TOCID: Tab2cmYPETgv8ho8sTiFvwyxFnQ-] found
  60. Submit result: Tab2cmYPETgv8ho8sTiFvwyxFnQ- has been confirmed
  61. Track | CTDB Status
  62.   1   | (1/1) Accurately ripped
  63.   2   | (1/1) Accurately ripped
  64.   3   | (1/1) Accurately ripped
  65.   4   | (1/1) Accurately ripped
  66.   5   | (1/1) Accurately ripped
  67.   6   | (1/1) Accurately ripped
  68.   7   | (1/1) Accurately ripped
  69.   8   | (1/1) Accurately ripped
  70.   9   | (1/1) Accurately ripped
  71. 10   | (1/1) Accurately ripped
  72. 11   | (1/1) Accurately ripped
  73. 12   | (1/1) Accurately ripped
  74. 13   | (1/1) Accurately ripped


  75. ==== 记录校验日志 851176956A3BBBA93C65B6760B1653CF7AF7FD1D5FDCB0D1E62C28ED58EDE2DD ====
复制代码

评分

参与人数 1音符 +30 炫币 +30 收起 理由
秋风 + 30 + 30 赞一个!

查看全部评分

发表于 2015-12-27 09:58:43 | 显示全部楼层
谢谢分享好音乐!
回复 支持 反对

使用道具 举报

发表于 2015-12-27 09:58:48 | 显示全部楼层
喜欢,收藏了,谢谢分享!
回复 支持 反对

使用道具 举报

发表于 2015-12-27 10:00:41 | 显示全部楼层
很不错,谢谢楼主分享
回复 支持 反对

使用道具 举报

发表于 2015-12-27 10:07:48 | 显示全部楼层
谢谢分享。。。
回复 支持 反对

使用道具 举报

发表于 2015-12-27 10:14:26 | 显示全部楼层
谢谢好听极了
回复 支持 反对

使用道具 举报

发表于 2015-12-27 10:22:47 | 显示全部楼层
都是经典.都要好好珍藏啊
回复 支持 反对

使用道具 举报

发表于 2015-12-27 10:32:06 | 显示全部楼层
感谢楼主发片
回复 支持 反对

使用道具 举报

头像被屏蔽
发表于 2015-12-27 10:41:26 | 显示全部楼层
提示: 作者被禁止或删除 内容自动屏蔽
回复 支持 反对

使用道具 举报

发表于 2015-12-27 10:48:33 | 显示全部楼层
来之不易,花了银子的,用音符币支持。
回复 支持 反对

使用道具 举报

发表于 2015-12-27 10:52:28 | 显示全部楼层
谢谢分享好音乐!
回复 支持 反对

使用道具 举报

发表于 2015-12-27 11:01:05 | 显示全部楼层
收藏了,谢谢分享!
回复 支持 反对

使用道具 举报

发表于 2015-12-27 11:11:46 | 显示全部楼层
谢谢楼主分享
回复 支持 反对

使用道具 举报

发表于 2015-12-27 11:25:01 | 显示全部楼层
清澈如水,十分感谢
回复 支持 反对

使用道具 举报

发表于 2015-12-27 11:34:13 | 显示全部楼层
非常非常喜欢!
回复 支持 反对

使用道具 举报

您需要登录后才可以回帖 登录 | 立即注册

本版积分规则

手机版|炫音音乐论坛 ( 皖ICP备13017420号-3 )皖公网安备 34082502000069号

GMT+8, 2018-7-24 01:13 , Processed in 0.124549 second(s), 30 queries , Gzip On.

Powered by Discuz! X3.4

© 2004-2017 炫音音乐论坛

快速回复 返回顶部 返回列表