查看: 5596|回复: 162

[原创] 【原创】RR管絃樂無敵精選Various-Tutti! Orchestral Sampler【WAV整轨/百度】

  [复制链接]
发表于 2016-1-25 10:08:29 | 显示全部楼层 |阅读模式
专辑名称:Tutti! Orchestral Sampler
专辑艺人:Various      
唱片公司:REFERENCE RECORDINGS
发行时间: 1997年
唱片编号:RR-906CD
资源类型:WAV/CUE/LOG

IMG_20151220_0001.jpg
IMG_20151220_0002.jpg
IMG_20151220_0004.jpg
IMG_20151220_0009.jpg

专辑介绍

這張「RR管絃樂無敵精選」破天荒精選了Reference Records旗下16首份量最重的古典音樂精華曲子,首首精彩,而且其中還有世界首度錄音的,難怪香港的音響雜誌稱為「天碟中的天碟」,並獲得一面倒的推薦,很多樂友在各大大小小的音響展之中,也常發現很多廠商拿來當示範CD。

  RR公司最著名的HDCD(就是他們老闆發明的),已邁入24位元處理方式,比前一代的20位元HDCD能提供更豐富的音樂訊息與細節。本片驚人的錄音效果不僅一般床頭音響的使用者會驚嘆於您床頭音響的潛力竟然可以如此,使用優秀的頂尖音響的發燒友更會感嘆您的錢沒有白花。RR歷年來所發行的精選集,張張都獲得很高評價,這一張CD的錄音成就也真不是蓋的,在極大動範之下,聲音的厚度還保持著平衡,絕對不會有吵雜刺耳的情形出現,新的24位元HDCD處理方式,功不可沒。RR每一張精選集都值得收藏,選曲精選、驚人的錄音成就,是一張您錯過絕對會遺撼的名盤。

专辑曲目

01. Nicolai Rimsky-Korsakov / Dance Of The Tumblers    [0:03:48.70]
02. George Whitefield Chadwick / Intermezzo e Humoreske from Suite Symphonique    [0:07:24.45]
03. Ron Nelson / Rocky Point Holiday    [0:05:00.25]
04. Igor Stravinsky / The Firebird - Berceuse    [0:03:33.07]
05. Igor Stravinsky / The Firebird - Finale    [0:02:54.45]
06. Wolfgang Amadeus Mozart / Piano Concerto No. 21 - Andante    [0:06:13.28]
07. Paul Paray / Symphony No. 1 - Allegretto con grazia    [0:04:43.15]
08. Anton Bruckner / Symphony No. 9 - Scherzo    [0:03:46.02]
09. Antonio Vivaldi / Concerto in F, RV 569 - Allegro    [0:04:39.65]
10. Malcolm Arnold / The Padstow Lifeboat    [0:03:14.10]
11. Jacques Ibert / Escales - Anime (Valencia)    [0:05:29.50]
12. Richard Strauss / The Times Of Day - Der Morgen    [0:04:49.15]
13. Leos Janacek / The Makropulos Case - Symphonic Synthesis, Act II    [0:04:16.10]
14. Eiji Oue / E.C.F., from Presque Isle    [0:02:46.13]
15. Mussorgsky-Ravel / Pictures At An Exhibition - Baba Yaga    [0:03:40.25]
16. Mussorgsky-Ravel / Pictures At An Exhibition - Great Gate at Kiev    [0:05:13.67]

游客,如果您要查看本帖隐藏内容请回复,如果您想免回复、免金币,直接查看内容,请开通炫音VIP


请点击此处下载

请先注册会员后在进行下载

已注册会员,请先登录后下载

文件名称:提取码.rar 
下载次数:211  文件大小:97 Bytes  售价:5金币 [记录]
下载权限: 不限   VIP会员打折   [购买VIP]   [充值金币]



  1. Exact Audio Copy V1.0 beta 3 from 29. August 2011

  2. EAC extraction logfile from 16. May 2013, 20:20

  3. Various / Tutti! Orchestral Sampler

  4. Used drive  : TSSTcorpCDDVDW TS-L633B   Adapter: 1  ID: 0

  5. Read mode               : Secure
  6. Utilize accurate stream : Yes
  7. Defeat audio cache      : Yes
  8. Make use of C2 pointers : No

  9. Read offset correction                      : 6
  10. Overread into Lead-In and Lead-Out          : No
  11. Fill up missing offset samples with silence : Yes
  12. Delete leading and trailing silent blocks   : No
  13. Null samples used in CRC calculations       : Yes
  14. Used interface                              : Native Win32 interface for Win NT & 2000

  15. Used output format : Internal WAV Routines
  16. Sample format      : 44.100 Hz; 16 Bit; Stereo


  17. TOC of the extracted CD

  18.      Track |   Start  |  Length  | Start sector | End sector
  19.     ---------------------------------------------------------
  20.         1  |  0:00.00 |  3:48.70 |         0    |    17169   
  21.         2  |  3:48.70 |  7:24.45 |     17170    |    50514   
  22.         3  | 11:13.40 |  5:00.25 |     50515    |    73039   
  23.         4  | 16:13.65 |  3:33.07 |     73040    |    89021   
  24.         5  | 19:46.72 |  2:54.45 |     89022    |   102116   
  25.         6  | 22:41.42 |  6:13.28 |    102117    |   130119   
  26.         7  | 28:54.70 |  4:43.15 |    130120    |   151359   
  27.         8  | 33:38.10 |  3:46.02 |    151360    |   168311   
  28.         9  | 37:24.12 |  4:39.65 |    168312    |   189301   
  29.        10  | 42:04.02 |  3:14.10 |    189302    |   203861   
  30.        11  | 45:18.12 |  5:29.50 |    203862    |   228586   
  31.        12  | 50:47.62 |  4:49.15 |    228587    |   250276   
  32.        13  | 55:37.02 |  4:16.10 |    250277    |   269486   
  33.        14  | 59:53.12 |  2:46.13 |    269487    |   281949   
  34.        15  | 62:39.25 |  3:40.25 |    281950    |   298474   
  35.        16  | 66:19.50 |  5:13.67 |    298475    |   322016   


  36. Range status and errors

  37. Selected range

  38.      Filename F:\欧美经典\Various - Tutti! Orchestral Sampler\Various - Tutti! Orchestral Sampler.wav

  39.      Peak level 99.9 %
  40.      Extraction speed 4.1 X
  41.      Range quality 100.0 %
  42.      Copy CRC 4C7275A3
  43.      Copy OK

  44. No errors occurred


  45. AccurateRip summary

  46. Track  1  accurately ripped (confidence 36)  [AFEA230B]  (AR v2)
  47. Track  2  accurately ripped (confidence 34)  [73674070]  (AR v2)
  48. Track  3  accurately ripped (confidence 36)  [8D268ECC]  (AR v2)
  49. Track  4  accurately ripped (confidence 37)  [B08B5AD6]  (AR v2)
  50. Track  5  accurately ripped (confidence 37)  [3E027B93]  (AR v2)
  51. Track  6  accurately ripped (confidence 37)  [D9DDA0E9]  (AR v2)
  52. Track  7  accurately ripped (confidence 37)  [F67D58C3]  (AR v2)
  53. Track  8  accurately ripped (confidence 37)  [A7CCEDD6]  (AR v2)
  54. Track  9  accurately ripped (confidence 37)  [CBB7C33A]  (AR v2)
  55. Track 10  accurately ripped (confidence 36)  [45DF74B1]  (AR v2)
  56. Track 11  accurately ripped (confidence 37)  [8B91FF08]  (AR v2)
  57. Track 12  accurately ripped (confidence 36)  [3274FF19]  (AR v2)
  58. Track 13  accurately ripped (confidence 36)  [B8FD2EF3]  (AR v2)
  59. Track 14  accurately ripped (confidence 36)  [808D694A]  (AR v2)
  60. Track 15  accurately ripped (confidence 37)  [B83A9101]  (AR v2)
  61. Track 16  accurately ripped (confidence 36)  [A71C614A]  (AR v2)

  62. All tracks accurately ripped

  63. End of status report

  64. ==== Log checksum 38339446273BF57F9C6CEFE46A7C4E02FC2292345AFC61ABC7E8B120EBD06B29 ====
复制代码

评分

参与人数 1音符 +30 炫币 +30 收起 理由
秋风 + 30 + 30 赞一个!

查看全部评分

发表于 2016-1-25 12:25:39 | 显示全部楼层
很不错的音乐,感谢
回复 支持 反对

使用道具 举报

发表于 2016-1-25 12:47:54 | 显示全部楼层
这张唱片音效卓绝,已经收藏,看中了楼主这个帖子的图片!
回复 支持 反对

使用道具 举报

发表于 2016-1-25 12:54:40 | 显示全部楼层
首首精彩,谢谢分享!
回复 支持 反对

使用道具 举报

发表于 2016-1-25 13:00:42 | 显示全部楼层
感谢分享非常精彩
回复 支持 反对

使用道具 举报

发表于 2016-1-25 16:13:31 | 显示全部楼层
谢谢分享好音乐。
回复 支持 反对

使用道具 举报

发表于 2016-1-25 17:37:35 | 显示全部楼层
感谢楼主分享。
回复 支持 反对

使用道具 举报

头像被屏蔽
发表于 2016-1-25 17:51:07 | 显示全部楼层
提示: 作者被禁止或删除 内容自动屏蔽
回复 支持 反对

使用道具 举报

发表于 2016-1-25 18:29:50 | 显示全部楼层
谢谢分享啊
回复 支持 反对

使用道具 举报

发表于 2016-1-25 18:52:38 | 显示全部楼层
谢谢楼主无私分享!
回复 支持 反对

使用道具 举报

发表于 2016-1-25 19:47:51 | 显示全部楼层
非常精彩

无私分享

谢谢楼主!
回复 支持 反对

使用道具 举报

发表于 2016-1-25 20:20:08 | 显示全部楼层
谢谢楼主分享
回复 支持 反对

使用道具 举报

发表于 2016-1-26 14:37:56 | 显示全部楼层
谢谢楼主分享,RR的音效卓绝
回复 支持 反对

使用道具 举报

发表于 2016-1-26 14:48:39 | 显示全部楼层
jingdianfrqumu
回复 支持 反对

使用道具 举报

发表于 2016-1-26 15:09:08 | 显示全部楼层
好东西一定要收藏
回复 支持 反对

使用道具 举报

您需要登录后才可以回帖 登录 | 立即注册

本版积分规则

手机版|炫音音乐论坛 ( 皖ICP备13017420号-3 )皖公网安备 34082502000069号

GMT+8, 2018-11-19 13:15 , Processed in 0.075459 second(s), 21 queries , Gzip On, File On.

Powered by Discuz! X3.4

© 2004-2017 炫音音乐论坛

快速回复 返回顶部 返回列表