查看: 2899|回复: 80

[其他音乐] 【原创】群星-音乐画卷4·花好月圆 DSD 【WAV整轨/百度】

  [复制链接]
发表于 2016-2-17 09:26:53 | 显示全部楼层 |阅读模式
专辑名称:音乐画卷4·花好月圆 DSD
专辑艺人:群星
出版:深圳音像公司
制作发行:广东火烈鸟文化发展有限公司
ISRC:CN-F29-08-342-00/A.6
发行时间:2009年02月
资源类型:WAV/CUE/LOG

IMG_20160104_0010.jpg

专辑介绍

不同的文化,不同的品味,不同的视野,不同的节奏,才能形成一张绝世珍藏的音乐作品。第四辑《花好月圆》,13首独特优美的高雅音韵,由无数不同风格的“演奏家”倾情演绎,赋予该专辑丰满的个性,似冬日无法拒绝的暖阳,一波接一波齐刷刷地向洒向你内心深处,久久地陷入于每个美妙的音符中,无尽的眷恋和陶醉。
这一次又做了一些新的尝试,不同的元素、曲风,呈现更开阔的音乐视野。音乐中独有的奔放与细腻、恣意与执着都可以在这张专辑中听见。除了曲风力求多元,对音乐的想法与视野、缤纷的中西乐器作为每一位无语伦比的“演奏家”,更添这张专辑的深度与可听性,展现更丰富、成熟的音乐风格。
抑许,这里没有世间的绝色,却能够给予一颗颤抖跳动的心;没有拯救灵魂的能力,但却能够发掘人性深处的一缕精神血脉,与你相依相偎;但,紫陌红尘的喧嚣中,心与心碰撞出的火花惟有在此领略其中。

专辑曲目

01. 童话    [0:04:43.37]
02. 后来    [0:05:18.00]
03. 春光美    [0:04:46.22]
04. 光阴的故事    [0:03:39.21]
05. 太多    [0:05:08.40]
06. 美丽心情    [0:04:18.05]
07. 我不够爱你    [0:04:21.32]
08. 最浪漫的事    [0:04:12.41]
09. 很爱很爱你    [0:05:05.20]
10. 外面的世界    [0:05:11.47]
11. 约定    [0:04:37.36]
12. 遇见    [0:04:19.19]
13. 醉清风    [0:05:25.02]

游客,如果您要查看本帖隐藏内容请回复,如果您想免回复、免金币,直接查看内容,请开通炫音VIP


请点击此处下载

请先注册会员后在进行下载

已注册会员,请先登录后下载

文件名称:提取码.rar 
下载次数:122  文件大小:97 Bytes  售价:5金币 [记录]
下载权限: 不限   VIP会员打折   [购买VIP]   [充值金币]



  1. Exact Audio Copy V1.0 beta 3 from 29. August 2011

  2. EAC extraction logfile from 22. July 2013, 12:23

  3. 群星 / 音乐画卷4花好月圆

  4. Used drive  : PIONEER DVD-RW DVR-K17RS   Adapter: 2  ID: 1

  5. Read mode               : Secure
  6. Utilize accurate stream : Yes
  7. Defeat audio cache      : Yes
  8. Make use of C2 pointers : No

  9. Read offset correction                      : 48
  10. Overread into Lead-In and Lead-Out          : No
  11. Fill up missing offset samples with silence : Yes
  12. Delete leading and trailing silent blocks   : No
  13. Null samples used in CRC calculations       : Yes
  14. Used interface                              : Native Win32 interface for Win NT & 2000

  15. Used output format : Internal WAV Routines
  16. Sample format      : 44.100 Hz; 16 Bit; Stereo


  17. TOC of the extracted CD

  18.      Track |   Start  |  Length  | Start sector | End sector
  19.     ---------------------------------------------------------
  20.         1  |  0:00.00 |  4:43.37 |         0    |    21261   
  21.         2  |  4:43.37 |  5:18.00 |     21262    |    45111   
  22.         3  | 10:01.37 |  4:46.22 |     45112    |    66583   
  23.         4  | 14:47.59 |  3:39.21 |     66584    |    83029   
  24.         5  | 18:27.05 |  5:08.40 |     83030    |   106169   
  25.         6  | 23:35.45 |  4:18.05 |    106170    |   125524   
  26.         7  | 27:53.50 |  4:21.32 |    125525    |   145131   
  27.         8  | 32:15.07 |  4:12.41 |    145132    |   164072   
  28.         9  | 36:27.48 |  5:05.20 |    164073    |   186967   
  29.        10  | 41:32.68 |  5:11.47 |    186968    |   210339   
  30.        11  | 46:44.40 |  4:37.36 |    210340    |   231150   
  31.        12  | 51:22.01 |  4:19.19 |    231151    |   250594   
  32.        13  | 55:41.20 |  5:25.02 |    250595    |   274971   


  33. Range status and errors

  34. Selected range

  35.      Filename E:\试音发烧\群星 - 音乐画卷4花好月圆\群星 - 音乐画卷4花好月圆.wav

  36.      Peak level 97.9 %
  37.      Extraction speed 4.0 X
  38.      Range quality 99.9 %
  39.      Copy CRC D7B86EF2
  40.      Copy OK

  41. No errors occurred

  42. End of status report
复制代码

评分

参与人数 2音符 +45 炫币 +45 收起 理由
lsh520 + 15 + 15 给力!
秋风 + 30 赞一个!

查看全部评分

发表于 2016-2-17 11:11:47 | 显示全部楼层
谢谢分享!!
回复 支持 反对

使用道具 举报

发表于 2016-2-17 11:45:46 | 显示全部楼层
谢谢楼主分享!
回复 支持 反对

使用道具 举报

发表于 2016-2-17 12:16:23 | 显示全部楼层
谢谢楼主分享!
回复 支持 反对

使用道具 举报

发表于 2016-2-17 12:44:33 | 显示全部楼层
要是dts就更加好了
回复 支持 反对

使用道具 举报

发表于 2016-2-17 16:59:27 | 显示全部楼层
谢谢楼主分享!
回复 支持 反对

使用道具 举报

发表于 2016-2-17 17:18:22 | 显示全部楼层
谢谢楼主分享!
回复 支持 反对

使用道具 举报

发表于 2016-2-17 19:08:44 | 显示全部楼层
好音乐,谢谢楼主
回复 支持 反对

使用道具 举报

发表于 2016-2-17 21:19:23 | 显示全部楼层
好音乐光阴的故事
回复 支持 反对

使用道具 举报

发表于 2016-2-18 07:42:02 | 显示全部楼层
我已经提交 5 音符,就等着动听的曲子了。
回复 支持 反对

使用道具 举报

发表于 2016-2-18 07:45:39 | 显示全部楼层
到哪提取密码?
回复 支持 反对

使用道具 举报

发表于 2016-2-18 11:14:30 | 显示全部楼层
好听的音乐,谢谢分享
回复 支持 反对

使用道具 举报

发表于 2016-2-18 17:38:32 | 显示全部楼层
不错,不错,听听
回复 支持 反对

使用道具 举报

发表于 2016-2-19 15:25:37 | 显示全部楼层
谢谢楼主分享!
回复 支持 反对

使用道具 举报

发表于 2016-2-19 15:33:00 | 显示全部楼层
在一个茶馆里听到过,很好的作品
回复 支持 反对

使用道具 举报

您需要登录后才可以回帖 登录 | 立即注册

本版积分规则

手机版|炫音音乐论坛 ( 皖ICP备13017420号-3 )皖公网安备 34082502000069号

GMT+8, 2018-6-25 10:21 , Processed in 0.079124 second(s), 28 queries , Gzip On.

Powered by Discuz! X3.4

© 2004-2017 炫音音乐论坛

快速回复 返回顶部 返回列表