查看: 2307|回复: 54

[新世纪音乐] 陈林 - 天地行咖啡音乐浪漫萨克斯雨的节奏【WAV整轨/百度】

  [复制链接]
发表于 2016-2-25 18:43:06 | 显示全部楼层 |阅读模式
IMG_20160106_0010.jpg
IMG_20160106_0011.jpg
IMG_20160106_0012.jpg
IMG_20160106_0013.jpg
IMG_20160106_0014.jpg
IMG_20160106_0015.jpg

陈林 - 天地行咖啡音乐浪漫萨克斯雨的节奏

《雨的节奏·咖啡音乐·浪漫萨克斯》是缠绵醉人的咖啡语茶清澈悠扬的名曲,带您远离城市喧嚣,品茗赏曲赋诗叙怀,感受咖啡一样的心境,享受片刻的宁静与安逸。一杯咖啡伴随一首萨克斯音乐,让我们一起度过这最浪漫的时刻……酩一口香浓的咖啡,听一段浪漫的萨克斯风!
  
  咖啡语茶,中西两种截然不同文化底蕴的完美交融,茶是一种心情,享受生活的一种积极而惬意的态度,咖啡是一种心境,享受远离喧嚣自我陶醉的一种态度。

01. 影中人    [0:03:47.00]
02. 带走我的呼吸    [0:04:36.00]
03. 天堂里的又一天    [0:04:26.00]
04. 往日情怀    [0:03:16.00]
05. 航行    [0:06:17.00]
06. 爱情的故事    [0:02:55.00]
07. 雨的节奏    [0:03:05.00]
08. 昨天再来    [0:03:48.00]
09. 月亮河    [0:03:12.00]
10. 感觉    [0:03:30.00]
11. 什锦菜    [0:04:15.00]
12. 生生不息    [0:05:00.00]
13. 何去何从    [0:04:27.00]
14. 今夜庆祝我俩的受    [0:03:41.00]

游客,如果您要查看本帖隐藏内容请回复,如果您想无广告、免回复、免金币 请开通VIP


请点击此处下载

请先注册会员后在进行下载

已注册会员,请先登录后下载

文件名称:mm.rar 
下载次数:71  文件大小:80 Bytes  售价:10金币 [记录]
下载权限: 不限   VIP会员打折   [购买VIP]   [充值金币]



  1. Exact Audio Copy V1.1 from 23. June 2015

  2. EAC 抓取日志文件从6. 一月 2016, 15:34

  3. 陈林 / 天地行咖啡音乐浪漫萨克斯雨的节奏

  4. 使用驱动器  :TSSTcorpCDDVDW SH-224DB   Adapter: 1  ID: 0

  5. 读取模式      : 可靠Secure
  6. 使用精确流     : 是
  7. 清空音频缓存    : 是
  8. 使用 C2 指示器 : 否

  9. 读取偏移校正:               : 6
  10. 读取 Lead-In 和 Lead-Out : 否
  11. 用静音填充抓取中丢失偏移的采样       : 是
  12. 去除首尾静音块               : 否
  13. 在CRC 计算中使用了空样本       : 是
  14. 已用接口                  : Win NT 及 2000 本地 Win32 接口

  15. 所用输出模式: : 内部 WAV 函数
  16. 样本格式    : 44.100 Hz; 16 Bit; 立体声


  17. 已抓取 CD 的 TOC

  18.      音轨 |    起始    |    长度    |  起始扇区  |  结束扇区  
  19.     --------------------------------------------
  20.       1 |  0:00.00 |  3:47.00 |      0 |  17024
  21.       2 |  3:47.00 |  4:36.00 |  17025 |  37724
  22.       3 |  8:23.00 |  4:26.00 |  37725 |  57674
  23.       4 | 12:49.00 |  3:16.00 |  57675 |  72374
  24.       5 | 16:05.00 |  6:17.00 |  72375 | 100649
  25.       6 | 22:22.00 |  2:55.00 | 100650 | 113774
  26.       7 | 25:17.00 |  3:05.00 | 113775 | 127649
  27.       8 | 28:22.00 |  3:48.00 | 127650 | 144749
  28.       9 | 32:10.00 |  3:12.00 | 144750 | 159149
  29.      10 | 35:22.00 |  3:30.00 | 159150 | 174899
  30.      11 | 38:52.00 |  4:15.00 | 174900 | 194024
  31.      12 | 43:07.00 |  5:00.00 | 194025 | 216524
  32.      13 | 48:07.00 |  4:27.00 | 216525 | 236549
  33.      14 | 52:34.00 |  3:41.00 | 236550 | 253124


  34. 范围状态及错误

  35. 已选择范围

  36.      文件名 F:\发烧唱片\陈林 - 天地行咖啡音乐浪漫萨克斯雨的节奏\陈林 - 天地行咖啡音乐浪漫萨克斯雨的节奏.wav

  37.      峰值电平 100.0 %
  38.      抓取速度 4.5 X
  39.      范围质量 100.0 %
  40.      复制 CRC 7D8A9A34
  41.      复制成功

  42. 没有错误发生


  43. AccurateRip 摘要

  44. 音轨  1  在数据库中不存在
  45. 音轨  2  在数据库中不存在
  46. 音轨  3  在数据库中不存在
  47. 音轨  4  在数据库中不存在
  48. 音轨  5  在数据库中不存在
  49. 音轨  6  在数据库中不存在
  50. 音轨  7  在数据库中不存在
  51. 音轨  8  在数据库中不存在
  52. 音轨  9  在数据库中不存在
  53. 音轨 10  在数据库中不存在
  54. 音轨 11  在数据库中不存在
  55. 音轨 12  在数据库中不存在
  56. 音轨 13  在数据库中不存在
  57. 音轨 14  在数据库中不存在

  58. 没有任何音轨在 AccurateRip 数据库中有记录

  59. 状态报告结尾

  60. ---- CUETools DB Plugin V2.1.6

  61. [CTDB TOCID: PcVpYv8WyquHEu4r0oqVwRLFDz0-] disk not present in database
  62. Submit result: 操作超时


  63. ==== 记录校验日志 7D60BB0D9DD8B6ADEE3EDC40BE0929F9D2F18A8DDB8A99C6FC055353945E72B8 ====
复制代码

评分

参与人数 2音符 +45 炫币 +45 收起 理由
lsh520 + 15 + 15 赞一个!
秋风 + 30 赞一个!

查看全部评分

发表于 2016-2-26 11:47:14 | 显示全部楼层
虽然比较折腾人,还是购买了欣赏,谢谢分享
回复 支持 反对

使用道具 举报

发表于 2016-2-26 12:40:10 | 显示全部楼层
天地行系列音乐,好听!值得欣赏!!
回复 支持 反对

使用道具 举报

发表于 2016-2-26 16:03:39 | 显示全部楼层
浪漫萨克斯好听!
回复 支持 反对

使用道具 举报

发表于 2016-2-26 21:28:28 | 显示全部楼层
支持一下!
回复 支持 反对

使用道具 举报

发表于 2016-2-26 23:07:27 | 显示全部楼层
很不错的音乐,感谢分享。
回复 支持 反对

使用道具 举报

发表于 2016-2-27 18:52:46 | 显示全部楼层
很不错的音乐,
回复 支持 反对

使用道具 举报

发表于 2016-2-28 13:17:05 | 显示全部楼层
问好楼主,
感谢分享休闲音乐,
放松身心,享受音乐好生活。。
祝周末快乐!
回复 支持 反对

使用道具 举报

发表于 2016-2-28 17:51:17 | 显示全部楼层
再上这些音乐都是经典,应该不错
回复 支持 反对

使用道具 举报

发表于 2016-3-2 16:44:24 | 显示全部楼层
好音乐我喜欢
回复 支持 反对

使用道具 举报

发表于 2016-3-2 17:13:48 | 显示全部楼层
好 谢谢分享
回复 支持 反对

使用道具 举报

发表于 2016-3-3 07:26:51 | 显示全部楼层
谢谢楼主谢谢楼主发布
回复 支持 反对

使用道具 举报

发表于 2016-3-4 12:21:39 | 显示全部楼层
试听 欢快的节奏  就喜欢上了
回复 支持 反对

使用道具 举报

发表于 2016-3-6 02:03:07 | 显示全部楼层
节奏欢快,曲风明朗,给人一种很阳光的感觉,情不自禁的把小屁屁都扭起来啦,哈哈
回复 支持 反对

使用道具 举报

发表于 2016-3-6 09:15:57 | 显示全部楼层
下来听听,十分感谢楼主分享。
回复 支持 反对

使用道具 举报

您需要登录后才可以回帖 登录 | 立即注册

本版积分规则

手机版|Archiver|炫音音乐论坛 ( 皖ICP备13017420号-3 )皖公网安备 34082502000069号

GMT+8, 2018-2-20 19:32 , Processed in 0.143124 second(s), 21 queries , Gzip On, WinCache On.

Powered by Discuz! X3.4

© 2004-2017 炫音音乐论坛

快速回复 返回顶部 返回列表