查看: 2812|回复: 50

[新世纪音乐] 陈林 - 天地行音乐之旅情感萨克斯茉莉花【WAV整轨/套图/百度】

  [复制链接]
发表于 2016-2-25 18:56:20 | 显示全部楼层 |阅读模式
IMG_20160106_0020.jpg
IMG_20160106_0021.jpg
IMG_20160106_0022.jpg
IMG_20160106_0023.jpg
IMG_20160106_0024.jpg
IMG_20160106_0025.jpg

陈林 - 天地行音乐之旅情感萨克斯茉莉花

萨克斯名曲《茉莉花》,由于萨克斯本身声音悠扬清亮,而这首乐曲把缥缈缠绵的意境表现得相当到位,在音质不好的播放器上往往会将声音表现成刺耳的高音,意境皆无。面对难以完美再现的萨克斯,尤其是清纯悠扬的清音效果和抒情的高音时,应该表现的完满而到位。层次感清晰分明,音质柔和不显刺耳,却极富穿透力。

01. 茉莉花    [0:04:43.00]
02. 卡萨布兰卡    [0:04:29.00]
03. 在此等候    [0:04:11.00]
04. 至死不渝的爱《北非谍影》主题曲    [0:04:24.00]
05. 月亮河    [0:03:13.00]
06. 斯卡布罗集市    [0:03:19.00]
07. 蒙娜丽莎    [0:04:42.00]
08. 最后的圆舞曲    [0:03:49.00]
09. 我为你做一切    [0:04:09.00]
10. 感觉    [0:03:30.00]
11. 往日情怀    [0:03:16.00]
12. 电话诉衷肠《红衣女郎》    [0:04:11.00]
13. 昨日再来    [0:03:49.00]
14. 星月之旅    [0:03:36.00]

游客,如果您要查看本帖隐藏内容请回复


请点击此处下载

请先注册会员后在进行下载

已注册会员,请先登录后下载

文件名称:提取码.rar 
下载次数:75  文件大小:97 Bytes  售价:10金币 [记录]
下载权限: 不限   VIP会员打折   [购买VIP]   [充值金币]



  1. Exact Audio Copy V1.1 from 23. June 2015

  2. EAC 抓取日志文件从6. 一月 2016, 16:04

  3. 陈林 / 天地行音乐之旅情感萨克斯茉莉花

  4. 使用驱动器  :TSSTcorpCDDVDW SH-224DB   Adapter: 1  ID: 0

  5. 读取模式      : 可靠Secure
  6. 使用精确流     : 是
  7. 清空音频缓存    : 是
  8. 使用 C2 指示器 : 否

  9. 读取偏移校正:               : 6
  10. 读取 Lead-In 和 Lead-Out : 否
  11. 用静音填充抓取中丢失偏移的采样       : 是
  12. 去除首尾静音块               : 否
  13. 在CRC 计算中使用了空样本       : 是
  14. 已用接口                  : Win NT 及 2000 本地 Win32 接口

  15. 所用输出模式: : 内部 WAV 函数
  16. 样本格式    : 44.100 Hz; 16 Bit; 立体声


  17. 已抓取 CD 的 TOC

  18.      音轨 |    起始    |    长度    |  起始扇区  |  结束扇区  
  19.     --------------------------------------------
  20.       1 |  0:00.00 |  4:43.00 |      0 |  21224
  21.       2 |  4:43.00 |  4:29.00 |  21225 |  41399
  22.       3 |  9:12.00 |  4:11.00 |  41400 |  60224
  23.       4 | 13:23.00 |  4:24.00 |  60225 |  80024
  24.       5 | 17:47.00 |  3:13.00 |  80025 |  94499
  25.       6 | 21:00.00 |  3:19.00 |  94500 | 109424
  26.       7 | 24:19.00 |  4:42.00 | 109425 | 130574
  27.       8 | 29:01.00 |  3:49.00 | 130575 | 147749
  28.       9 | 32:50.00 |  4:09.00 | 147750 | 166424
  29.      10 | 36:59.00 |  3:30.00 | 166425 | 182174
  30.      11 | 40:29.00 |  3:16.00 | 182175 | 196874
  31.      12 | 43:45.00 |  4:11.00 | 196875 | 215699
  32.      13 | 47:56.00 |  3:49.00 | 215700 | 232874
  33.      14 | 51:45.00 |  3:36.00 | 232875 | 249074


  34. 范围状态及错误

  35. 已选择范围

  36.      文件名 F:\发烧唱片\陈林 - 天地行音乐之旅情感萨克斯茉莉花\陈林 - 天地行音乐之旅情感萨克斯茉莉花.wav

  37.      峰值电平 81.7 %
  38.      抓取速度 4.5 X
  39.      范围质量 99.9 %
  40.      复制 CRC 84D8BA9E
  41.      复制成功

  42. 没有错误发生


  43. AccurateRip 摘要

  44. 音轨  1  在数据库中不存在
  45. 音轨  2  在数据库中不存在
  46. 音轨  3  在数据库中不存在
  47. 音轨  4  在数据库中不存在
  48. 音轨  5  在数据库中不存在
  49. 音轨  6  在数据库中不存在
  50. 音轨  7  在数据库中不存在
  51. 音轨  8  在数据库中不存在
  52. 音轨  9  在数据库中不存在
  53. 音轨 10  在数据库中不存在
  54. 音轨 11  在数据库中不存在
  55. 音轨 12  在数据库中不存在
  56. 音轨 13  在数据库中不存在
  57. 音轨 14  在数据库中不存在

  58. 没有任何音轨在 AccurateRip 数据库中有记录

  59. 状态报告结尾

  60. ---- CUETools DB Plugin V2.1.6

  61. [CTDB TOCID: v3.ZQgT11.nsw9VEr7wGc4bQMIY-] disk not present in database
  62. Submit result: 请求被中止: 请求已被取消。


  63. ==== 记录校验日志 ABF6E6323B71DF94FAC966B8542B95E7DE1AACDA088866E096C0F7D683F860B2 ====
复制代码

评分

参与人数 1音符 +30 炫币 +30 收起 理由
秋风 + 30 + 30 赞一个!

查看全部评分

发表于 2016-2-26 11:42:59 | 显示全部楼层
浪漫抒情,琴声悦耳。谢谢分享
回复 支持 反对

使用道具 举报

发表于 2016-2-26 12:43:21 | 显示全部楼层
再收一盘!喜欢的音乐!!
回复 支持 反对

使用道具 举报

发表于 2016-2-26 16:14:46 | 显示全部楼层
缥缈缠绵的萨克斯名曲《茉莉花》
回复 支持 反对

使用道具 举报

发表于 2016-2-26 23:12:25 | 显示全部楼层
很喜欢这个萨克斯专辑。
回复 支持 反对

使用道具 举报

发表于 2016-2-27 10:13:36 | 显示全部楼层
谢谢楼主分享!
回复 支持 反对

使用道具 举报

头像被屏蔽
发表于 2016-2-27 16:31:56 | 显示全部楼层
提示: 作者被禁止或删除 内容自动屏蔽
回复 支持 反对

使用道具 举报

发表于 2016-2-27 21:03:10 | 显示全部楼层
好听!谢谢楼主!
回复 支持 反对

使用道具 举报

发表于 2016-3-1 19:13:13 | 显示全部楼层
最美萨克斯。。。。。
回复 支持 反对

使用道具 举报

发表于 2016-3-2 10:43:31 | 显示全部楼层
很好的一张碟,谢谢分享!
回复 支持 反对

使用道具 举报

发表于 2016-3-18 22:16:49 | 显示全部楼层
浪漫抒情,琴声悦耳。谢谢分享
回复 支持 反对

使用道具 举报

发表于 2016-3-18 22:25:46 | 显示全部楼层
浪漫抒情,琴声悦耳。谢谢分享
回复 支持 反对

使用道具 举报

发表于 2016-3-18 22:30:45 | 显示全部楼层
thanks for sharing....
回复 支持 反对

使用道具 举报

发表于 2016-4-18 13:17:02 | 显示全部楼层
嘹亮的萨克斯。
回复 支持 反对

使用道具 举报

发表于 2016-4-23 20:06:43 | 显示全部楼层
谢谢分享了
回复 支持 反对

使用道具 举报

您需要登录后才可以回帖 登录 | 立即注册

本版积分规则

手机版|Archiver|炫音音乐论坛 ( 皖ICP备13017420号-3 )皖公网安备 34082502000069号

GMT+8, 2018-5-25 13:25 , Processed in 0.116390 second(s), 21 queries , Gzip On, WinCache On.

Powered by Discuz! X3.4

© 2004-2017 炫音音乐论坛

快速回复 返回顶部 返回列表