查看: 2367|回复: 50

[其他音乐] 【原抓】陈林 - 欧美流行音乐珍藏今夜你是否感到恩爱【WAV整轨/套图/百度】

[复制链接]
发表于 2016-3-18 08:21:00 | 显示全部楼层 |阅读模式
IMG_20160106_0038.jpg
IMG_20160106_0039.jpg
IMG_20160106_0040.jpg
IMG_20160106_0041.jpg
IMG_20160106_0042.jpg
IMG_20160106_0043.jpg
IMG_20160106_0044.jpg

陈林 - 天地行欧美流行音乐珍藏今夜你是否感到恩爱(萨克斯)

悠悠的萨克斯,吹响的是那淡淡的感伤,浓浓的思绪;吹出的是你的往昔,你的等待,你的情怀,恰如心在吟唱,沏上一杯浓香的咖啡,耳边飘起怀旧与感性的萨克斯。没想到,悠悠的萨克斯也可有如此豪气,灵秀。才发现这就是生活,这就是享受。

01. 把美好的留在最后    [0:03:55.00]
02. 我心伴你永远    [0:04:47.00]
03. 今夜你是否感到恩爱    [0:04:14.00]
04. 白兰鸽    [0:03:09.00]
05. 我们    [0:05:46.00]
06. 我们几乎拥有一切    [0:05:04.00]
07. 温柔的倾诉    [0:03:08.00]
08. 卡萨布兰卡    [0:04:28.00]
09. 月亮河    [0:03:14.00]
10. 婚礼    [0:05:22.00]
11. 我会永远爱你    [0:04:33.00]
12. 让我再试一次    [0:03:19.00]
13. 当男女相爱时    [0:03:43.00]
14. 美女与野兽    [0:04:29.00]

游客,如果您要查看本帖隐藏内容请回复,如果您想免回复、免金币,直接查看内容,请开通炫音VIP


请点击此处下载

请先注册会员后在进行下载

已注册会员,请先登录后下载

文件名称:提取码.rar 
下载次数:84  文件大小:97 Bytes  售价:5金币 [记录]
下载权限: 不限   VIP会员打折   [购买VIP]   [充值金币]



  1. Exact Audio Copy V1.1 from 23. June 2015

  2. EAC 抓取日志文件从6. 一月 2016, 16:36

  3. 陈林 / 天地行欧美流行音乐珍藏今夜你是否感到恩爱(萨克斯)

  4. 使用驱动器  :TSSTcorpCDDVDW SH-224DB   Adapter: 1  ID: 0

  5. 读取模式      : 可靠Secure
  6. 使用精确流     : 是
  7. 清空音频缓存    : 是
  8. 使用 C2 指示器 : 否

  9. 读取偏移校正:               : 6
  10. 读取 Lead-In 和 Lead-Out : 否
  11. 用静音填充抓取中丢失偏移的采样       : 是
  12. 去除首尾静音块               : 否
  13. 在CRC 计算中使用了空样本       : 是
  14. 已用接口                  : Win NT 及 2000 本地 Win32 接口

  15. 所用输出模式: : 内部 WAV 函数
  16. 样本格式    : 44.100 Hz; 16 Bit; 立体声


  17. 已抓取 CD 的 TOC

  18.      音轨 |    起始    |    长度    |  起始扇区  |  结束扇区  
  19.     --------------------------------------------
  20.       1 |  0:00.00 |  3:55.00 |      0 |  17624
  21.       2 |  3:55.00 |  4:47.00 |  17625 |  39149
  22.       3 |  8:42.00 |  4:14.00 |  39150 |  58199
  23.       4 | 12:56.00 |  3:09.00 |  58200 |  72374
  24.       5 | 16:05.00 |  5:46.00 |  72375 |  98324
  25.       6 | 21:51.00 |  5:04.00 |  98325 | 121124
  26.       7 | 26:55.00 |  3:08.00 | 121125 | 135224
  27.       8 | 30:03.00 |  4:28.00 | 135225 | 155324
  28.       9 | 34:31.00 |  3:14.00 | 155325 | 169874
  29.      10 | 37:45.00 |  5:22.00 | 169875 | 194024
  30.      11 | 43:07.00 |  4:33.00 | 194025 | 214499
  31.      12 | 47:40.00 |  3:19.00 | 214500 | 229424
  32.      13 | 50:59.00 |  3:43.00 | 229425 | 246149
  33.      14 | 54:42.00 |  4:29.00 | 246150 | 266324


  34. 范围状态及错误

  35. 已选择范围

  36.      文件名 F:\发烧唱片\陈林 - 天地行欧美流行音乐珍藏今夜你是否感到恩爱(萨克斯)\陈林 - 天地行欧美流行音乐珍藏今夜你是否感到恩爱(萨克斯).wav

  37.      峰值电平 94.5 %
  38.      抓取速度 4.5 X
  39.      范围质量 100.0 %
  40.      复制 CRC 87451378
  41.      复制成功

  42. 没有错误发生


  43. AccurateRip 摘要

  44. 音轨  1  在数据库中不存在
  45. 音轨  2  在数据库中不存在
  46. 音轨  3  在数据库中不存在
  47. 音轨  4  在数据库中不存在
  48. 音轨  5  在数据库中不存在
  49. 音轨  6  在数据库中不存在
  50. 音轨  7  在数据库中不存在
  51. 音轨  8  在数据库中不存在
  52. 音轨  9  在数据库中不存在
  53. 音轨 10  在数据库中不存在
  54. 音轨 11  在数据库中不存在
  55. 音轨 12  在数据库中不存在
  56. 音轨 13  在数据库中不存在
  57. 音轨 14  在数据库中不存在

  58. 没有任何音轨在 AccurateRip 数据库中有记录

  59. 状态报告结尾

  60. ---- CUETools DB Plugin V2.1.6

  61. [CTDB TOCID: _M7SRTHNFAlasGh96Fc3YoAO.oc-] found
  62. Submit result: 请求被中止: 请求已被取消。
  63. Track | CTDB Status
  64.   1   | (2/2) Accurately ripped
  65.   2   | (2/2) Accurately ripped
  66.   3   | (2/2) Accurately ripped
  67.   4   | (2/2) Accurately ripped
  68.   5   | (2/2) Accurately ripped
  69.   6   | (2/2) Accurately ripped
  70.   7   | (2/2) Accurately ripped
  71.   8   | (2/2) Accurately ripped
  72.   9   | (2/2) Accurately ripped
  73. 10   | (1/2) Accurately ripped, or (1/2) differs in 32 samples @02:00:50-02:00:51,02:00:67,02:02:03,02:04:25
  74. 11   | (2/2) Accurately ripped
  75. 12   | (2/2) Accurately ripped
  76. 13   | (2/2) Accurately ripped
  77. 14   | (2/2) Accurately ripped


  78. ==== 记录校验日志 B42BD40E06AFD53D0556862463383A073F24A42F2DD1D883CFED83657D41F0C1 ====
复制代码

评分

参与人数 2音符 +45 炫币 +45 收起 理由
lsh520 + 15 + 15 给力!
秋风 + 30 赞一个!

查看全部评分

发表于 2016-3-18 08:23:03 | 显示全部楼层
非常悠扬的旋律
回复 支持 反对

使用道具 举报

发表于 2016-3-18 12:01:14 | 显示全部楼层
流行金曲。谢谢分享
回复 支持 反对

使用道具 举报

发表于 2016-3-18 12:01:50 | 显示全部楼层
音质很好,谢谢分享。
回复 支持 反对

使用道具 举报

发表于 2016-3-18 12:08:17 | 显示全部楼层
今天123分享的音乐都是非常优美的专辑,萨克斯这种乐器我个人也是很喜欢的,特别那几首回家,茉莉花,我心永恒成为了经典的著名曲目,每次听到萨克斯的乐曲时总会情不自禁的翻出来听听,回味回味!这几张萨克斯我都非常喜欢,辛苦你了!
回复 支持 反对

使用道具 举报

发表于 2016-3-18 15:22:43 | 显示全部楼层
珍藏的精品,谢谢分享
回复 支持 反对

使用道具 举报

发表于 2016-3-18 15:48:42 | 显示全部楼层
喜欢萨克斯音乐  谢谢分享
回复 支持 反对

使用道具 举报

发表于 2016-3-18 18:38:25 | 显示全部楼层
好听
回复 支持 反对

使用道具 举报

发表于 2016-3-19 00:31:35 | 显示全部楼层
喜欢萨克斯音乐  谢谢分享
回复 支持 反对

使用道具 举报

发表于 2016-3-19 01:06:45 | 显示全部楼层
轻音飞扬,动听名曲
回复 支持 反对

使用道具 举报

头像被屏蔽
发表于 2016-3-19 05:08:02 | 显示全部楼层
提示: 作者被禁止或删除 内容自动屏蔽
回复 支持 反对

使用道具 举报

发表于 2016-3-19 11:22:06 | 显示全部楼层
享受悠悠的萨克斯
回复 支持 反对

使用道具 举报

发表于 2016-3-19 12:01:49 | 显示全部楼层
谢谢楼主分享!!!
回复 支持 反对

使用道具 举报

发表于 2016-3-19 12:28:42 | 显示全部楼层
收下!感谢楼主分享!!
回复 支持 反对

使用道具 举报

发表于 2016-3-19 13:14:28 | 显示全部楼层
感谢老大分享
回复 支持 反对

使用道具 举报

您需要登录后才可以回帖 登录 | 立即注册

本版积分规则

手机版|炫音音乐论坛 ( 皖ICP备13017420号-3 )皖公网安备 34082502000069号

GMT+8, 2018-8-20 18:55 , Processed in 0.133003 second(s), 21 queries , Gzip On, File On.

Powered by Discuz! X3.4

© 2004-2017 炫音音乐论坛

快速回复 返回顶部 返回列表