查看: 9912|回复: 178

[原创] Junkie XL - 《Deadpool 死侍》 2016 [WAV 整轨-BD]

  [复制链接]
发表于 2016-3-23 13:56:20 | 显示全部楼层 |阅读模式
本帖最后由 barca008 于 2016-8-9 09:09 编辑

Front.jpg

CD.jpg

Back.jpg

席捲全球票房,顛覆一般英雄的正義形象,漫威漫畫(Marvel Comics)中最標新立異的角色!
由【惡靈古堡】、【300壯士:帝國崛起】、【馬達加斯加3】、【功夫熊貓2】…等好萊塢賣座電影配樂名家Junkie XL全權負責電影配樂!
話題加收George Michael首支個人不朽冠軍名曲「Careless Whisper」、Salt-N-Pepa詢問度超高的「Shoop」,以及DMX「X Gon’ Give It To Ya」、Juice Newton「Angel Of The Morning」、Neil Sedaka「Calendar Girl」等懷念金曲!

【關於電影】
顛覆一般英雄的正義形象,漫威漫畫(Marvel Comics)中最標新立異的角色【惡棍英雄:死侍Deadpool】,以5800萬低成本預算卻創下超高票房,於全球上映不到一個月時間,狂掃突破5億美金的驚人票房紀錄!以暴制暴的「死侍」Wade Wilson,將賤嘴發揮到極致,從小出生在不美滿的家庭,長大後不僅成為傭兵,還被檢查出罹患癌症,為了讓自己生命延續,願意用自己身體提供「Weapon X計劃」進行實驗。手術後的Wade擁有快速再生的特異能力,但付出的代價即是失去原來生活與帥氣外貌。「死侍」利用這份超能力,展開最暴力的復仇行動,逐一獵殺那些做實驗背後的藏鏡人!由以【Gopher Broke】獲得奧斯卡『最佳動畫短片』提名的提姆‧米勒(Tim Miller)執導,成為其大螢幕長片的首部處女秀,並邀請【X戰警:未來昔日】幕後團隊齊力打造!主要參與演出的明星群包括:接演DC漫畫改編【綠光戰警】、漫威漫畫改編【刀鋒戰士3】+【X戰警:金鋼狼】的萊恩‧雷諾斯(Ryan Reynolds)+靠著【反恐危機】提名艾美獎『最佳女配角』獎的莫蓮娜‧芭卡琳(Morena Baccarin)+英國饒舌歌手、主演【玩命快遞:肆意橫行】的艾德‧斯克林(Ed Skrein)+電視/電影/配音界全包的喜劇演員T‧J‧米勒(T.J. Miller)+身兼演員/格鬥者/健身模特兒,加入【玩命關頭6】陣容的吉娜‧卡拉諾(Gina Carano),就連漫威漫畫創辦者之一的史丹‧李(Stan Lee),也在劇中客串一角!

【關於原聲帶】
「死侍」在劇中也會隨著音樂搖擺,配樂部分更是電影的重要一環!邀請從音樂圈起家,不僅鑽研電子領域多樣風格,本身還是位DJ,熟稔吉他、鼓、鍵盤等樂器,出生荷蘭本名Tom Holkenborg的Junkie XL全權負責。Junkie XL過去的成就包括在2002年將貓王經典名作「A Little Less Conversation」重新混音,在世界盃黃金時段搭配Nike廣告放送,衝上超過20國排行冠軍寶座!除此之外,許多電玩遊戲、知名品牌的廣告曲,都指定Junkie XL前來操刀。進而跨出界執掌電影配樂,舉凡【惡靈古堡】、【300壯士:帝國崛起】、【馬達加斯加3:歐洲大圍捕】、【功夫熊貓2】、【瘋狂麥斯:憤怒道】…等好萊塢賣座電影,都是Junkie XL得意之作!搭配槍戰、武打場景,編入現代電子合成器的效果,散射舞動過癮快勁,同時調入搖滾和管弦樂的撼動節奏,捕捉感官的十足刺激!除此之外,還跨界收錄多首經典金曲,網羅:預告片中曝光、坐高架橋上哼唱的片尾曲「Shoop」,是音樂史上第一組全女性饒舌團體,獲葛萊美喝采的Salt-N-Pepa慾望高漲之歌,詢問度超高;另一支預告片也出現過,準備大開殺戒的襯樂「X Gon’ Give It To Ya」,是3座葛萊美獎入圍的兇狠饒舌將帥DMX的全英金榜Top6招牌曲;鄉村/流行美麗女聲Juice Newton首支取得成人抒情榜冠軍的好歌「Angel Of The Morning」;入籍長島音樂名人殿堂的Neil Sedaka分別於1960年登記加拿大和日本冠軍的「Calendar Girl」,此為1999年數位高音質重製版;就連George Michael在WHAM!時期所發表的首支個人作品,1984年佔領25個國家冠軍,狂銷600萬的薩克斯風伴奏抒情金曲「Careless Whisper」也不錯過一併回味!




Artist: Junkie XL
Title: Deadpool (Original Motion Picture Soundtrack)
Style: Soundtrack/Film Score
Label: Milan Records
Barcode: 3299039979525
Release Date: 2016.02.26
Release Country: EU
Catalog Number: 339 795-2
Duration: 68:11
Source: CDDA
Grabber: EAC Secure Mode
Format: WAV Lossless
SID-Code CD-Master: IFPI-L323
SID-Code Presswerk: IFPI-5819
Encoder: barca008


CD: Junkie XL - Deadpool (Original Motion Picture Soundtrack)

01. Juice Newton / Angel of the Morning    [0:04:12.57]
02. Maximum Effort    [0:02:08.00]
03. Small Disruption    [0:01:12.88]
04. Salt‐N‐Pepa / Shoop    [0:04:08.56]
05. Twelve Bullets    [0:02:50.44]
06. Man in a Red Suit    [0:02:20.00]
07. Liam Neeson Nightmares    [0:01:56.00]
08. Neil Sedaka / Calendar Girl (1999 remastered version)    [0:02:37.77]
09. The Punch Bowl    [0:05:55.57]
10. Back to Life    [0:02:12.00]
11. Every Time I See Her    [0:00:54.00]
12. Teamheadkick / Deadpool Rap    [0:03:25.57]
13. Easy Angel    [0:02:31.70]
14. Scrap Yard    [0:01:02.00]
15. This Place Looks Sanitary    [0:06:50.22]
16. Watership Down    [0:04:10.40]
17. DMX / X Gon’ Give It to Ya (radio edit)    [0:03:37.58]
18. Going Commando    [0:03:45.98]
19. Let’s Try to Kill Each Other    [0:01:00.00]
20. Stupider When You Say It    [0:02:24.32]
21. Four or Five Moments    [0:00:54.00]
22. A Face I Would Sit On    [0:03:07.68]
23. George Michael / Careless Whisper    [0:05:02.69]


百度链接:
http://pan.baidu.com/s/1hqTnHbA

提取码:
游客,如果您要查看本帖隐藏内容请回复,如果您想免回复、免金币,直接查看内容,请开通炫音VIP

 楼主| 发表于 2016-3-23 13:59:12 | 显示全部楼层
这次不放照片了,免得留下不好印象

就贴个抓轨日志吧




Exact Audio Copy V1.0 beta 4 from 7. December 2014

EAC extraction logfile from 22. March 2016, 20:09

Junkie XL / Deadpool (Original Motion Picture Soundtrack)

Used drive  : ASUS    SDR-08B1-U   A   Adapter: 1  ID: 0

Read mode               : Secure
Utilize accurate stream : Yes
Defeat audio cache      : Yes
Make use of C2 pointers : No

Read offset correction                      : 6
Overread into Lead-In and Lead-Out          : No
Fill up missing offset samples with silence : Yes
Delete leading and trailing silent blocks   : No
Null samples used in CRC calculations       : Yes
Used interface                              : Native Win32 interface for Win NT & 2000

Used output format : Internal WAV Routines
Sample format      : 44.100 Hz; 16 Bit; Stereo


TOC of the extracted CD

     Track |   Start  |  Length  | Start sector | End sector
    ---------------------------------------------------------
        1  |  0:00.00 |  4:12.43 |         0    |    18942   
        2  |  4:12.43 |  2:08.00 |     18943    |    28542   
        3  |  6:20.43 |  1:12.66 |     28543    |    34008   
        4  |  7:33.34 |  4:08.42 |     34009    |    52650   
        5  | 11:42.01 |  2:50.33 |     52651    |    65433   
        6  | 14:32.34 |  2:20.00 |     65434    |    75933   
        7  | 16:52.34 |  1:56.00 |     75934    |    84633   
        8  | 18:48.34 |  2:37.58 |     84634    |    96466   
        9  | 21:26.17 |  5:55.43 |     96467    |   123134   
       10  | 27:21.60 |  2:12.00 |    123135    |   133034   
       11  | 29:33.60 |  0:54.00 |    133035    |   137084   
       12  | 30:27.60 |  3:25.43 |    137085    |   152502   
       13  | 33:53.28 |  2:31.53 |    152503    |   163880   
       14  | 36:25.06 |  1:02.00 |    163881    |   168530   
       15  | 37:27.06 |  6:50.17 |    168531    |   199297   
       16  | 44:17.23 |  4:10.30 |    199298    |   218077   
       17  | 48:27.53 |  3:37.44 |    218078    |   234396   
       18  | 52:05.22 |  3:45.74 |    234397    |   251345   
       19  | 55:51.21 |  1:00.00 |    251346    |   255845   
       20  | 56:51.21 |  2:24.24 |    255846    |   266669   
       21  | 59:15.45 |  0:54.00 |    266670    |   270719   
       22  | 60:09.45 |  3:07.51 |    270720    |   284795   
       23  | 63:17.21 |  5:02.52 |    284796    |   307497   


Range status and errors

Selected range

     Filename D:\Junkie XL - Deadpool (Original Motion Picture Soundtrack)\Junkie XL - Deadpool (Original Motion Picture Soundtrack).wav

     Peak level 98.8 %
     Extraction speed 4.8 X
     Range quality 100.0 %
     Test CRC 31FC32AB
     Copy CRC 31FC32AB
     Copy OK

No errors occurred


AccurateRip summary

Track  1  not present in database
Track  2  not present in database
Track  3  not present in database
Track  4  not present in database
Track  5  not present in database
Track  6  not present in database
Track  7  not present in database
Track  8  not present in database
Track  9  not present in database
Track 10  not present in database
Track 11  not present in database
Track 12  not present in database
Track 13  not present in database
Track 14  not present in database
Track 15  not present in database
Track 16  not present in database
Track 17  not present in database
Track 18  not present in database
Track 19  not present in database
Track 20  not present in database
Track 21  not present in database
Track 22  not present in database
Track 23  not present in database

None of the tracks are present in the AccurateRip database

End of status report

---- CUETools DB Plugin V2.1.4

[CTDB TOCID: CaVwoyeU_A5O3Xj3aV5XITm.IFI-] found
Submit result: already submitted
Track | CTDB Status
  1   | (26/26) Accurately ripped
  2   | (26/26) Accurately ripped
  3   | (26/26) Accurately ripped
  4   | (26/26) Accurately ripped
  5   | (26/26) Accurately ripped
  6   | (26/26) Accurately ripped
  7   | (26/26) Accurately ripped
  8   | (26/26) Accurately ripped
  9   | (26/26) Accurately ripped
10   | (26/26) Accurately ripped
11   | (26/26) Accurately ripped
12   | (26/26) Accurately ripped
13   | (26/26) Accurately ripped
14   | (26/26) Accurately ripped
15   | (26/26) Accurately ripped
16   | (26/26) Accurately ripped
17   | (26/26) Accurately ripped
18   | (26/26) Accurately ripped
19   | (26/26) Accurately ripped
20   | (26/26) Accurately ripped
21   | (26/26) Accurately ripped
22   | (26/26) Accurately ripped
23   | (26/26) Accurately ripped


==== Log checksum 3B3B5423FBDC1400E48AF868FE197D7E70FD778B06EF3CA31967F1BD0CD27046 ====
回复 支持 反对

使用道具 举报

发表于 2016-3-23 21:40:01 | 显示全部楼层
谢谢楼主分享啦
回复 支持 反对

使用道具 举报

发表于 2016-3-24 00:09:29 | 显示全部楼层
嘿嘿,前来搜刮
回复 支持 反对

使用道具 举报

发表于 2016-3-24 16:30:20 来自手机 | 显示全部楼层
多谢露珠~~~~小贱贱会很好听吧~
回复 支持 反对

使用道具 举报

发表于 2016-3-24 19:56:45 | 显示全部楼层
新电影 好没看  应该不错
回复 支持 反对

使用道具 举报

发表于 2016-3-24 20:33:03 | 显示全部楼层
收下,谢谢版主分享!
回复 支持 反对

使用道具 举报

发表于 2016-3-25 01:26:13 | 显示全部楼层
今天看了这个片子特意来找这张专辑
谢谢分享
回复 支持 反对

使用道具 举报

发表于 2016-3-25 11:40:49 | 显示全部楼层
谢谢楼主分享
回复 支持 反对

使用道具 举报

发表于 2016-3-25 12:42:38 | 显示全部楼层
出来得好快啊
回复 支持 反对

使用道具 举报

发表于 2016-3-25 18:14:37 | 显示全部楼层
这个好,感谢分享。。太屌l !
回复 支持 反对

使用道具 举报

发表于 2016-3-26 16:40:20 | 显示全部楼层
超帅的一部电影   
回复 支持 反对

使用道具 举报

发表于 2016-3-27 14:01:44 | 显示全部楼层
今天看了这个片子特意来找这张专辑
谢谢分享                                                     
回复 支持 反对

使用道具 举报

发表于 2016-3-27 16:49:49 | 显示全部楼层
好久没来了!支持一下!
回复 支持 反对

使用道具 举报

发表于 2016-3-28 00:29:16 | 显示全部楼层
这个太棒了 看完电影对原声非常有感觉 就像被解救的姜戈一样 感谢分享
回复 支持 反对

使用道具 举报

您需要登录后才可以回帖 登录 | 立即注册

本版积分规则

手机版|炫音音乐论坛 ( 皖ICP备13017420号-3 )皖公网安备 34082502000069号

GMT+8, 2018-11-20 23:31 , Processed in 0.057991 second(s), 11 queries , Gzip On, File On.

Powered by Discuz! X3.4

© 2004-2017 炫音音乐论坛

快速回复 返回顶部 返回列表