查看: 7744|回复: 234

[新世纪音乐] 【原创】群星 - 十大酒吧音乐 3CD【WAV整轨/百度】

  [复制链接]
发表于 2016-6-6 19:02:28 | 显示全部楼层 |阅读模式
IMG_20160405_0036.jpg
IMG_20160405_0037.jpg
IMG_20160405_0038.jpg
IMG_20160405_0039.jpg
IMG_20160405_0040.jpg

群星 - 十大酒吧音乐

至爱珍藏,伤感情怀最佳收录。
伤人心,感悟人生几许回味。

DISC 1

01. 回家    [0:05:29.49]
02. 命运    [0:03:35.67]
03. 绿袖子    [0:02:48.52]
04. 大大世界    [0:03:24.33]
05. 伤感电影    [0:02:52.66]
06. 爱的罗曼史    [0:03:23.56]
07. 月亮河    [0:03:11.06]
08. 一切为你    [0:04:08.39]
09. 献给爱丽丝    [0:03:11.06]
10. 魂断蓝桥    [0:03:29.68]
11. 爱的纪念    [0:02:49.47]
12. 迷失的爱    [0:03:50.16]
13. 永志不渝    [0:04:07.54]
14. 温柔的诉说    [0:02:48.51]
15. 美女与野兽    [0:04:28.13]
16. 今夜何等温柔    [0:04:22.11]
17. 当男人爱上女人    [0:03:40.40]
18. 莫斯科郊外的晚上    [0:03:14.53]

DISC 2

01. 爱无止境    [0:04:21.56]
02. 此情可待    [0:05:08.02]
03. 人鬼情未了    [0:03:20.36]
04. 昨日重现    [0:04:15.64]
05. 无心快语    [0:03:20.11]
06. 无尽的爱    [0:04:52.40]
07. 说你是我    [0:03:09.05]
08. 爱情故事    [0:04:07.66]
09. 天堂之约    [0:04:31.17]
10. 乱世佳人    [0:03:50.00]
11. 斯卡布罗集市    [0:02:37.12]
12. 友谊地久天长    [0:02:52.33]
13. 爱的力量    [0:04:02.44]
14. 风中之烛    [0:03:46.41]
15. 有你相伴    [0:03:32.00]
16. 安妮的仙境    [0:03:22.49]
17. 天堂的另一边    [0:03:20.59]
18. 罗密欧与朱丽叶    [0:03:06.32]

DISC 3

01. 寂寞之声    [0:02:20.45]
02. 雪绒花    [0:03:40.00]
03. 莎啦啦    [0:03:56.15]
04. 茉莉花    [0:04:38.44]
05. 摇篮曲    [0:03:37.64]
06. 只有你    [0:03:41.18]
07. 航行    [0:04:44.60]
08. 鸽子    [0:04:04.05]
09. 玫瑰之吻    [0:04:13.62]
10. 卡萨布兰卡    [0:04:31.54]
11. 加州旅店    [0:03:56.25]
12. 雨中的旋律    [0:03:01.44]
13. 我将永远爱你    [0:03:35.04]
14. 爱你在心口难开    [0:03:02.10]
15. 电话诉衷肠    [0:03:41.28]
16. 阿根廷别为我哭泣    [0:05:30.00]
17. 此情永不移    [0:03:23.49]
18. 乡村路带我回家    [0:03:06.48]

游客,如果您要查看本帖隐藏内容请回复,如果您想无广告、免回复、免金币 请开通VIP


请点击此处下载

请先注册会员后在进行下载

已注册会员,请先登录后下载

文件名称:提取码.rar 
下载次数:263  文件大小:97 Bytes  售价:10金币 [记录]
下载权限: 不限   VIP会员打折   [购买VIP]   [充值金币]



  1. Exact Audio Copy V1.1 from 23. June 2015

  2. EAC 抓取日志文件从6. 四月 2016, 15:26

  3. 群星 / 十大酒吧音乐 DISC 1

  4. 使用驱动器  :TSSTcorpCDDVDW SH-224DB   Adapter: 1  ID: 0

  5. 读取模式      : 可靠Secure
  6. 使用精确流     : 是
  7. 清空音频缓存    : 是
  8. 使用 C2 指示器 : 否

  9. 读取偏移校正:               : 6
  10. 读取 Lead-In 和 Lead-Out : 否
  11. 用静音填充抓取中丢失偏移的采样       : 是
  12. 去除首尾静音块               : 否
  13. 在CRC 计算中使用了空样本       : 是
  14. 已用接口                  : Win NT 及 2000 本地 Win32 接口

  15. 所用输出模式: : 内部 WAV 函数
  16. 样本格式    : 44.100 Hz; 16 Bit; 立体声


  17. 已抓取 CD 的 TOC

  18.      音轨 |    起始    |    长度    |  起始扇区  |  结束扇区  
  19.     --------------------------------------------
  20.       1 |  0:00.00 |  5:29.49 |      0 |  24723
  21.       2 |  5:29.49 |  3:35.67 |  24724 |  40915
  22.       3 |  9:05.41 |  2:48.52 |  40916 |  53567
  23.       4 | 11:54.18 |  3:24.33 |  53568 |  68900
  24.       5 | 15:18.51 |  2:52.66 |  68901 |  81866
  25.       6 | 18:11.42 |  3:23.56 |  81867 |  97147
  26.       7 | 21:35.23 |  3:11.06 |  97148 | 111478
  27.       8 | 24:46.29 |  4:08.39 | 111479 | 130117
  28.       9 | 28:54.68 |  3:11.06 | 130118 | 144448
  29.      10 | 32:05.74 |  3:29.68 | 144449 | 160191
  30.      11 | 35:35.67 |  2:49.47 | 160192 | 172913
  31.      12 | 38:25.39 |  3:50.16 | 172914 | 190179
  32.      13 | 42:15.55 |  4:07.54 | 190180 | 208758
  33.      14 | 46:23.34 |  2:48.51 | 208759 | 221409
  34.      15 | 49:12.10 |  4:28.13 | 221410 | 241522
  35.      16 | 53:40.23 |  4:22.11 | 241523 | 261183
  36.      17 | 58:02.34 |  3:40.40 | 261184 | 277723
  37.      18 | 61:42.74 |  3:14.53 | 277724 | 292326


  38. 范围状态及错误

  39. 已选择范围

  40.      文件名 F:\发烧唱片\群星 - 十大酒吧音乐\群星 - 十大酒吧音乐 DISC 1.wav

  41.      峰值电平 100.0 %
  42.      抓取速度 4.5 X
  43.      范围质量 99.9 %
  44.      复制 CRC 3ACA97F6
  45.      复制成功

  46. 没有错误发生


  47. AccurateRip 摘要

  48. 音轨  1  在数据库中不存在
  49. 音轨  2  在数据库中不存在
  50. 音轨  3  在数据库中不存在
  51. 音轨  4  在数据库中不存在
  52. 音轨  5  在数据库中不存在
  53. 音轨  6  在数据库中不存在
  54. 音轨  7  在数据库中不存在
  55. 音轨  8  在数据库中不存在
  56. 音轨  9  在数据库中不存在
  57. 音轨 10  在数据库中不存在
  58. 音轨 11  在数据库中不存在
  59. 音轨 12  在数据库中不存在
  60. 音轨 13  在数据库中不存在
  61. 音轨 14  在数据库中不存在
  62. 音轨 15  在数据库中不存在
  63. 音轨 16  在数据库中不存在
  64. 音轨 17  在数据库中不存在
  65. 音轨 18  在数据库中不存在

  66. 没有任何音轨在 AccurateRip 数据库中有记录

  67. 状态报告结尾

  68. ---- CUETools DB Plugin V2.1.6

  69. [CTDB TOCID: lWRbJLJbxjbtGCkFYYfaLNeX3mI-] disk not present in database
  70. Submit result: 请求被中止: 请求已被取消。


  71. ==== 记录校验日志 43D657D3AD01B54782015977A5910E9A011411BD814CAF603B7DCBEF368A98A9 ====
复制代码
  1. Exact Audio Copy V1.1 from 23. June 2015

  2. EAC 抓取日志文件从6. 四月 2016, 16:13

  3. 群星 / 十大酒吧音乐 DISC 2

  4. 使用驱动器  :TSSTcorpCDDVDW SH-224DB   Adapter: 1  ID: 0

  5. 读取模式      : 可靠Secure
  6. 使用精确流     : 是
  7. 清空音频缓存    : 是
  8. 使用 C2 指示器 : 否

  9. 读取偏移校正:               : 6
  10. 读取 Lead-In 和 Lead-Out : 否
  11. 用静音填充抓取中丢失偏移的采样       : 是
  12. 去除首尾静音块               : 否
  13. 在CRC 计算中使用了空样本       : 是
  14. 已用接口                  : Win NT 及 2000 本地 Win32 接口

  15. 所用输出模式: : 内部 WAV 函数
  16. 样本格式    : 44.100 Hz; 16 Bit; 立体声


  17. 已抓取 CD 的 TOC

  18.      音轨 |    起始    |    长度    |  起始扇区  |  结束扇区  
  19.     --------------------------------------------
  20.       1 |  0:00.00 |  4:21.56 |      0 |  19630
  21.       2 |  4:21.56 |  5:08.02 |  19631 |  42732
  22.       3 |  9:29.58 |  3:20.36 |  42733 |  57768
  23.       4 | 12:50.19 |  4:15.64 |  57769 |  76957
  24.       5 | 17:06.08 |  3:20.11 |  76958 |  91968
  25.       6 | 20:26.19 |  4:52.40 |  91969 | 113908
  26.       7 | 25:18.59 |  3:09.05 | 113909 | 128088
  27.       8 | 28:27.64 |  4:07.66 | 128089 | 146679
  28.       9 | 32:35.55 |  4:31.17 | 146680 | 167021
  29.      10 | 37:06.72 |  3:50.00 | 167022 | 184271
  30.      11 | 40:56.72 |  2:37.12 | 184272 | 196058
  31.      12 | 43:34.09 |  2:52.33 | 196059 | 208991
  32.      13 | 46:26.42 |  4:02.44 | 208992 | 227185
  33.      14 | 50:29.11 |  3:46.41 | 227186 | 244176
  34.      15 | 54:15.52 |  3:32.00 | 244177 | 260076
  35.      16 | 57:47.52 |  3:22.49 | 260077 | 275275
  36.      17 | 61:10.26 |  3:20.59 | 275276 | 290334
  37.      18 | 64:31.10 |  3:06.32 | 290335 | 304316


  38. 范围状态及错误

  39. 已选择范围

  40.      文件名 F:\发烧唱片\群星 - 十大酒吧音乐\群星 - 十大酒吧音乐 DISC 2.wav

  41.      峰值电平 100.0 %
  42.      抓取速度 4.6 X
  43.      范围质量 100.0 %
  44.      复制 CRC 3AC07997
  45.      复制成功

  46. 没有错误发生


  47. AccurateRip 摘要

  48. 音轨  1  在数据库中不存在
  49. 音轨  2  在数据库中不存在
  50. 音轨  3  在数据库中不存在
  51. 音轨  4  在数据库中不存在
  52. 音轨  5  在数据库中不存在
  53. 音轨  6  在数据库中不存在
  54. 音轨  7  在数据库中不存在
  55. 音轨  8  在数据库中不存在
  56. 音轨  9  在数据库中不存在
  57. 音轨 10  在数据库中不存在
  58. 音轨 11  在数据库中不存在
  59. 音轨 12  在数据库中不存在
  60. 音轨 13  在数据库中不存在
  61. 音轨 14  在数据库中不存在
  62. 音轨 15  在数据库中不存在
  63. 音轨 16  在数据库中不存在
  64. 音轨 17  在数据库中不存在
  65. 音轨 18  在数据库中不存在

  66. 没有任何音轨在 AccurateRip 数据库中有记录

  67. 状态报告结尾

  68. ---- CUETools DB Plugin V2.1.6

  69. [CTDB TOCID: .blfoddBIQMtWGCye2Pwst6X._k-] database access error: 无法解析此远程名称: 'db.cuetools.net'


  70. ==== 记录校验日志 B6186F51C35838520B545611F8BEACF62193423B0D554318BC6990C652CB50BD ====
复制代码
  1. Exact Audio Copy V1.1 from 23. June 2015

  2. EAC 抓取日志文件从6. 四月 2016, 16:42

  3. 群星 / 十大酒吧音乐 DISC 3

  4. 使用驱动器  :TSSTcorpCDDVDW SH-224DB   Adapter: 1  ID: 0

  5. 读取模式      : 可靠Secure
  6. 使用精确流     : 是
  7. 清空音频缓存    : 是
  8. 使用 C2 指示器 : 否

  9. 读取偏移校正:               : 6
  10. 读取 Lead-In 和 Lead-Out : 否
  11. 用静音填充抓取中丢失偏移的采样       : 是
  12. 去除首尾静音块               : 否
  13. 在CRC 计算中使用了空样本       : 是
  14. 已用接口                  : Win NT 及 2000 本地 Win32 接口

  15. 所用输出模式: : 内部 WAV 函数
  16. 样本格式    : 44.100 Hz; 16 Bit; 立体声


  17. 已抓取 CD 的 TOC

  18.      音轨 |    起始    |    长度    |  起始扇区  |  结束扇区  
  19.     --------------------------------------------
  20.       1 |  0:00.00 |  2:20.45 |      0 |  10544
  21.       2 |  2:20.45 |  3:40.00 |  10545 |  27044
  22.       3 |  6:00.45 |  3:56.15 |  27045 |  44759
  23.       4 |  9:56.60 |  4:38.44 |  44760 |  65653
  24.       5 | 14:35.29 |  3:37.64 |  65654 |  81992
  25.       6 | 18:13.18 |  3:41.18 |  81993 |  98585
  26.       7 | 21:54.36 |  4:44.60 |  98586 | 119945
  27.       8 | 26:39.21 |  4:04.05 | 119946 | 138250
  28.       9 | 30:43.26 |  4:13.62 | 138251 | 157287
  29.      10 | 34:57.13 |  4:31.54 | 157288 | 177666
  30.      11 | 39:28.67 |  3:56.25 | 177667 | 195391
  31.      12 | 43:25.17 |  3:01.44 | 195392 | 209010
  32.      13 | 46:26.61 |  3:35.04 | 209011 | 225139
  33.      14 | 50:01.65 |  3:02.10 | 225140 | 238799
  34.      15 | 53:04.00 |  3:41.28 | 238800 | 255402
  35.      16 | 56:45.28 |  5:30.00 | 255403 | 280152
  36.      17 | 62:15.28 |  3:23.49 | 280153 | 295426
  37.      18 | 65:39.02 |  3:06.48 | 295427 | 309424


  38. 范围状态及错误

  39. 已选择范围

  40.      文件名 F:\发烧唱片\群星 - 十大酒吧音乐\群星 - 十大酒吧音乐 DISC 3.wav

  41.      峰值电平 100.0 %
  42.      抓取速度 4.7 X
  43.      范围质量 100.0 %
  44.      复制 CRC 7F059008
  45.      复制成功

  46. 没有错误发生


  47. AccurateRip 摘要

  48. 音轨  1  在数据库中不存在
  49. 音轨  2  在数据库中不存在
  50. 音轨  3  在数据库中不存在
  51. 音轨  4  在数据库中不存在
  52. 音轨  5  在数据库中不存在
  53. 音轨  6  在数据库中不存在
  54. 音轨  7  在数据库中不存在
  55. 音轨  8  在数据库中不存在
  56. 音轨  9  在数据库中不存在
  57. 音轨 10  在数据库中不存在
  58. 音轨 11  在数据库中不存在
  59. 音轨 12  在数据库中不存在
  60. 音轨 13  在数据库中不存在
  61. 音轨 14  在数据库中不存在
  62. 音轨 15  在数据库中不存在
  63. 音轨 16  在数据库中不存在
  64. 音轨 17  在数据库中不存在
  65. 音轨 18  在数据库中不存在

  66. 没有任何音轨在 AccurateRip 数据库中有记录

  67. 状态报告结尾

  68. ---- CUETools DB Plugin V2.1.6

  69. [CTDB TOCID: XopbO38rq9c5pm.r7G9T2T5cql8-] disk not present in database
  70. Submit result: 请求被中止: 请求已被取消。


  71. ==== 记录校验日志 3FAB036C9A9DF52220A0B34F1EF02EFAEBDB6908816FA0C42A99F43B7C2820ED ====
复制代码

评分

参与人数 2音符 +65 炫币 +75 收起 理由
lsh520 + 15 + 15 赞一个!
秋风 + 60 给力!

查看全部评分

发表于 2016-6-6 21:44:53 | 显示全部楼层
谢谢分享寂寞之声
回复 支持 反对

使用道具 举报

发表于 2016-6-6 22:55:03 | 显示全部楼层
残阳的地板都是温暖啊
回复 支持 反对

使用道具 举报

发表于 2016-6-6 23:09:24 | 显示全部楼层
感谢分享原抓专辑,这套专辑从曲目上来看就是一些非常精典的乐曲,只是看到封面与乐曲本身不太协调,不过内容是很棒的,感谢上传!
回复 支持 反对

使用道具 举报

发表于 2016-6-6 23:35:40 | 显示全部楼层
内容还不错,很经典。
回复 支持 反对

使用道具 举报

发表于 2016-6-6 23:43:22 | 显示全部楼层
都是经典曲目!!下载做背景!!
回复 支持 反对

使用道具 举报

发表于 2016-6-7 00:28:54 | 显示全部楼层
都是些熟悉的经典乐曲,感谢分享。
回复 支持 反对

使用道具 举报

发表于 2016-6-7 06:30:52 | 显示全部楼层
因该是非常好听的
回复 支持 反对

使用道具 举报

发表于 2016-6-7 08:09:23 | 显示全部楼层
经典,谢谢楼主分享
回复 支持 反对

使用道具 举报

发表于 2016-6-7 08:38:22 | 显示全部楼层
谢谢分享寂寞之声
回复 支持 反对

使用道具 举报

发表于 2016-6-7 09:27:26 | 显示全部楼层
对符合非国家规划开好
回复 支持 反对

使用道具 举报

发表于 2016-6-7 09:40:42 | 显示全部楼层
谢谢楼主,楼主辛苦了。
回复 支持 反对

使用道具 举报

发表于 2016-6-7 09:44:11 | 显示全部楼层
好好听,很好的
回复 支持 反对

使用道具 举报

发表于 2016-6-7 11:05:40 | 显示全部楼层
奥斯卡金曲,谢谢分享
回复 支持 反对

使用道具 举报

发表于 2016-6-7 11:25:42 | 显示全部楼层
谢谢您的分享
回复 支持 反对

使用道具 举报

您需要登录后才可以回帖 登录 | 立即注册

本版积分规则

手机版|Archiver|炫音音乐论坛 ( 皖ICP备13017420号-3 )皖公网安备 34082502000069号

GMT+8, 2018-1-19 05:24 , Processed in 0.168237 second(s), 22 queries , Gzip On, WinCache On.

Powered by Discuz! X3.4

© 2004-2017 炫音音乐论坛

快速回复 返回顶部 返回列表