查看: 1844|回复: 46

[沙发音乐] 【原抓】美国爵士乐鼓手Philly Joe Jones-Drum Songs【WAV整轨/百度】

[复制链接]
发表于 2016-7-3 10:39:43 | 显示全部楼层 |阅读模式
IMG_20160318_0085.jpg
IMG_20160318_0086.jpg
IMG_20160318_0087.jpg
IMG_20160318_0088.jpg

Philly Joe Jones - Drum Songs
      YEAR: 0

Philly Joe Jones(1923年7月15日-1985年8月30日 )是费城出生的美国爵士乐鼓手 , 迈尔斯·戴维斯五重奏乐队鼓手。1985年8月30日Philly Joe Jones心脏病发作死在费城家里,终年62岁。

01. Trailways    [0:06:56.67]
02. Invitation    [0:06:59.15]
03. Helena    [0:05:57.15]
04. Midnight Waltz    [0:11:01.05]
05. Smoke Gets In Your Eyes    [0:08:15.50]
06. Our Delight    [0:06:14.38]
07. I Waited For You    [0:05:44.20]
08. Bird    [0:06:35.30]
09. Two Bass Hit    [0:05:18.37]
10. Hi-Fly    [0:07:45.73]
11. Drum Song    [0:06:21.52]

游客,如果您要查看本帖隐藏内容请回复,如果您想免回复、免金币,直接查看内容,请开通炫音VIP


请点击此处下载

请先注册会员后在进行下载

已注册会员,请先登录后下载

文件名称:提取码.rar 
下载次数:69  文件大小:97 Bytes  售价:5金币 [记录]
下载权限: 不限   VIP会员打折   [购买VIP]   [充值金币]



  1. Exact Audio Copy V1.1 from 23. June 2015

  2. EAC 抓取日志文件从24. 三月 2016, 12:07

  3. Philly Joe Jones / Drum Songs

  4. 使用驱动器  :TSSTcorpCDDVDW SH-224DB   Adapter: 1  ID: 0

  5. 读取模式      : 可靠Secure
  6. 使用精确流     : 是
  7. 清空音频缓存    : 是
  8. 使用 C2 指示器 : 否

  9. 读取偏移校正:               : 6
  10. 读取 Lead-In 和 Lead-Out : 否
  11. 用静音填充抓取中丢失偏移的采样       : 是
  12. 去除首尾静音块               : 否
  13. 在CRC 计算中使用了空样本       : 是
  14. 已用接口                  : Win NT 及 2000 本地 Win32 接口

  15. 所用输出模式: : 内部 WAV 函数
  16. 样本格式    : 44.100 Hz; 16 Bit; 立体声


  17. 已抓取 CD 的 TOC

  18.      音轨 |    起始    |    长度    |  起始扇区  |  结束扇区  
  19.     --------------------------------------------
  20.       1 |  0:00.00 |  6:56.67 |      0 |  31266
  21.       2 |  6:56.67 |  6:59.15 |  31267 |  62706
  22.       3 | 13:56.07 |  5:57.15 |  62707 |  89496
  23.       4 | 19:53.22 | 11:01.05 |  89497 | 139076
  24.       5 | 30:54.27 |  8:15.50 | 139077 | 176251
  25.       6 | 39:10.02 |  6:14.38 | 176252 | 204339
  26.       7 | 45:24.40 |  5:44.20 | 204340 | 230159
  27.       8 | 51:08.60 |  6:35.30 | 230160 | 259814
  28.       9 | 57:44.15 |  5:18.37 | 259815 | 283701
  29.      10 | 63:02.52 |  7:45.73 | 283702 | 318649
  30.      11 | 70:48.50 |  6:21.52 | 318650 | 347276


  31. 范围状态及错误

  32. 已选择范围

  33.      文件名 F:\乡村爵士\Philly Joe Jones - Drum Songs\Philly Joe Jones - Drum Songs.wav

  34.      峰值电平 100.0 %
  35.      抓取速度 4.9 X
  36.      范围质量 100.0 %
  37.      复制 CRC 67BAB155
  38.      复制成功

  39. 没有错误发生


  40. AccurateRip 摘要

  41. 音轨  1  精确地校准抓取  2)  [9B072A60]  (AR v2)
  42. 音轨  2  精确地校准抓取  2)  [F43E8D6F]  (AR v2)
  43. 音轨  3  精确地校准抓取  2)  [D0614851]  (AR v2)
  44. 音轨  4  精确地校准抓取  2)  [67EA447A]  (AR v2)
  45. 音轨  5  精确地校准抓取  2)  [2C2B8A91]  (AR v2)
  46. 音轨  6  精确地校准抓取  2)  [8EB04EDE]  (AR v2)
  47. 音轨  7  精确地校准抓取  2)  [E0E64849]  (AR v2)
  48. 音轨  8  精确地校准抓取  2)  [4B2593A0]  (AR v2)
  49. 音轨  9  精确地校准抓取  2)  [BDB603AD]  (AR v2)
  50. 音轨 10  精确地校准抓取  2)  [80A5D427]  (AR v2)
  51. 音轨 11  精确地校准抓取  2)  [ACD48A2A]  (AR v2)

  52. 所有音轨精确校准抓取

  53. 状态报告结尾

  54. ---- CUETools DB Plugin V2.1.6

  55. [CTDB TOCID: wPTUFPZ5sX5hETK1krRpr4cMAic-] disk not present in database
  56. Submit result: 请求被中止: 请求已被取消。


  57. ==== 记录校验日志 04F568EA6067E765BE6F27AD5C94C2608D1D00338359E9EC70BBE16CB1291D49 ====
复制代码

评分

参与人数 1音符 +30 炫币 +30 收起 理由
秋风 + 30 + 30 赞一个!

查看全部评分

发表于 2016-7-3 11:06:25 | 显示全部楼层
醉人的爵士乐......谢谢
回复 支持 反对

使用道具 举报

发表于 2016-7-3 12:48:17 | 显示全部楼层
醉人的爵士乐..
回复 支持 反对

使用道具 举报

发表于 2016-7-3 15:42:22 | 显示全部楼层
好喜欢 谢楼主
回复 支持 反对

使用道具 举报

发表于 2016-7-3 16:15:35 | 显示全部楼层
多谢楼主,多谢。
回复 支持 反对

使用道具 举报

头像被屏蔽
发表于 2016-7-4 01:32:28 | 显示全部楼层
提示: 作者被禁止或删除 内容自动屏蔽
回复 支持 反对

使用道具 举报

发表于 2016-7-4 02:27:06 | 显示全部楼层
谢谢分享好音乐
回复 支持 反对

使用道具 举报

发表于 2016-7-5 16:29:06 | 显示全部楼层
比较难得的爵士鼓音乐,谢谢 楼主分享。
回复 支持 反对

使用道具 举报

发表于 2016-7-5 20:24:01 | 显示全部楼层
好东西啊!
回复 支持 反对

使用道具 举报

发表于 2016-7-5 20:54:55 | 显示全部楼层
爵士鼓啊!很少见,谢谢!
回复 支持 反对

使用道具 举报

发表于 2016-7-6 10:21:53 | 显示全部楼层
谢楼主分享好的音乐
回复 支持 反对

使用道具 举报

发表于 2016-7-6 13:03:38 | 显示全部楼层
感谢老大分享
回复 支持 反对

使用道具 举报

发表于 2016-7-8 13:10:47 | 显示全部楼层
謝謝樓主分享
回复 支持 反对

使用道具 举报

 成长值: 6550

发表于 2016-7-10 23:52:00 | 显示全部楼层
收来听听  谢谢分享
回复 支持 反对

使用道具 举报

发表于 2016-7-11 08:07:19 | 显示全部楼层
gegdgsgsffdgdhdfvsf
回复 支持 反对

使用道具 举报

您需要登录后才可以回帖 登录 | 立即注册

本版积分规则

手机版|炫音音乐论坛 ( 皖ICP备13017420号-3 )皖公网安备 34082502000069号

GMT+8, 2018-10-17 08:46 , Processed in 0.120316 second(s), 21 queries , Gzip On, File On.

Powered by Discuz! X3.4

© 2004-2017 炫音音乐论坛

快速回复 返回顶部 返回列表