查看: 2753|回复: 70

[原创] 【原抓】古典音乐-春天主题名曲集(索尼日本版)【WAV整轨/百度】

  [复制链接]
发表于 2016-9-19 09:33:58 | 显示全部楼层 |阅读模式
IMG_20160511_0036.jpg
IMG_20160511_0037.jpg
IMG_20160511_0038.jpg
IMG_20160511_0039.jpg

Various - 『春の声」~クラシック名曲集
古典音乐-春天主题名曲集(索尼日本版)

春之声圆舞曲,作品第410号(Frühlingsstimmen Walzer,op.410)是奥地利著名音乐家小约翰·施特劳斯的不朽名作。作于1883年。当时作者已年近六旬,但此曲依然充满活力,处处散发着青春的气息。据说小约翰·施特劳斯是在一个晚上就在钢琴上即兴创作出此曲的,因此此曲最早的版本是钢琴曲,后经剧作家填词成为声乐圆舞曲由著名花腔女高音歌唱家比安卡·比安琪演唱,这也是此曲的第一次演出,直到现在仍然是许多花腔女高音十分喜爱的曲目。后来作者又将它改编为管弦乐曲,一直深受世界人民喜爱。

01. 春の声    [0:05:54.55]
02. 春の歌    [0:02:27.15]
03. ポーランドの歌~『春」    [0:01:17.30]
04. 春へのあこがれ    [0:02:06.55]
05. ヴァイオリンソナタ第5番『春」    [0:10:09.42]
06. 『四季」~『春」第1楽章    [0:03:40.33]
07. 『春の夜」    [0:01:13.42]
08. 『白鳥の歌」~『春のあこがれ」    [0:03:19.20]
09. 『冬の旅」~『春の夢」    [0:04:10.18]
10. 『春」    [0:02:59.37]
11. 『春のロンド    [0:08:01.48]
12. 『春の祭典」~『春のロンド」    [0:03:57.42]
13. 『冬の嵐は過ぎ去り~君こそは春」    [0:11:43.03]
14. 『春」~第1楽章    [0:09:50.65]

游客,如果您要查看本帖隐藏内容请回复,如果您想免回复、免金币,直接查看内容,请开通炫音VIP


请点击此处下载

请先注册会员后在进行下载

已注册会员,请先登录后下载

文件名称:提取码.rar 
文件大小:97 Bytes  售价:5金币
下载权限: 不限   VIP会员尊享打折购买权限   [购买VIP]   [充值金币]



  1. Exact Audio Copy V1.1 from 23. June 2015

  2. EAC 抓取日志文件从17. 五月 2016, 12:23

  3. Various / 『春の声」~クラシック名曲集

  4. 使用驱动器  :TSSTcorpCDDVDW SH-224DB   Adapter: 1  ID: 0

  5. 读取模式      : 可靠Secure
  6. 使用精确流     : 是
  7. 清空音频缓存    : 是
  8. 使用 C2 指示器 : 否

  9. 读取偏移校正:               : 6
  10. 读取 Lead-In 和 Lead-Out : 否
  11. 用静音填充抓取中丢失偏移的采样       : 是
  12. 去除首尾静音块               : 否
  13. 在CRC 计算中使用了空样本       : 是
  14. 已用接口                  : Win NT 及 2000 本地 Win32 接口

  15. 所用输出模式: : 内部 WAV 函数
  16. 样本格式    : 44.100 Hz; 16 Bit; 立体声


  17. 已抓取 CD 的 TOC

  18.      音轨 |    起始    |    长度    |  起始扇区  |  结束扇区  
  19.     --------------------------------------------
  20.       1 |  0:00.00 |  5:54.55 |      0 |  26604
  21.       2 |  5:54.55 |  2:27.15 |  26605 |  37644
  22.       3 |  8:21.70 |  1:17.30 |  37645 |  43449
  23.       4 |  9:39.25 |  2:06.55 |  43450 |  52954
  24.       5 | 11:46.05 | 10:09.42 |  52955 |  98671
  25.       6 | 21:55.47 |  3:40.33 |  98672 | 115204
  26.       7 | 25:36.05 |  1:13.42 | 115205 | 120721
  27.       8 | 26:49.47 |  3:19.20 | 120722 | 135666
  28.       9 | 30:08.67 |  4:10.18 | 135667 | 154434
  29.      10 | 34:19.10 |  2:59.37 | 154435 | 167896
  30.      11 | 37:18.47 |  8:01.48 | 167897 | 204019
  31.      12 | 45:20.20 |  3:57.42 | 204020 | 221836
  32.      13 | 49:17.62 | 11:43.03 | 221837 | 274564
  33.      14 | 61:00.65 |  9:50.65 | 274565 | 318879


  34. 范围状态及错误

  35. 已选择范围

  36.      文件名 F:\古典原抓\Various - 『春の声」~クラシック名曲集\Various - 『春の声」~クラシック名曲集.wav

  37.      峰值电平 99.9 %
  38.      抓取速度 4.9 X
  39.      范围质量 100.0 %
  40.      复制 CRC 615A4392
  41.      复制成功

  42. 没有错误发生


  43. AccurateRip 摘要

  44. 音轨  1  在数据库中不存在
  45. 音轨  2  在数据库中不存在
  46. 音轨  3  在数据库中不存在
  47. 音轨  4  在数据库中不存在
  48. 音轨  5  在数据库中不存在
  49. 音轨  6  在数据库中不存在
  50. 音轨  7  在数据库中不存在
  51. 音轨  8  在数据库中不存在
  52. 音轨  9  在数据库中不存在
  53. 音轨 10  在数据库中不存在
  54. 音轨 11  在数据库中不存在
  55. 音轨 12  在数据库中不存在
  56. 音轨 13  在数据库中不存在
  57. 音轨 14  在数据库中不存在

  58. 没有任何音轨在 AccurateRip 数据库中有记录

  59. 状态报告结尾

  60. ---- CUETools DB Plugin V2.1.6

  61. [CTDB TOCID: UvQ48LckQfgsuBBZ2eFv_PcscqQ-] found
  62. Submit result: UvQ48LckQfgsuBBZ2eFv_PcscqQ- has been confirmed
  63. Track | CTDB Status
  64.   1   | (1/1) Accurately ripped
  65.   2   | (1/1) Accurately ripped
  66.   3   | (1/1) Accurately ripped
  67.   4   | (1/1) Accurately ripped
  68.   5   | (1/1) Accurately ripped
  69.   6   | (1/1) Accurately ripped
  70.   7   | (1/1) Accurately ripped
  71.   8   | (1/1) Accurately ripped
  72.   9   | (1/1) Accurately ripped
  73. 10   | (1/1) Accurately ripped
  74. 11   | (1/1) Accurately ripped
  75. 12   | (1/1) Accurately ripped
  76. 13   | (1/1) Accurately ripped
  77. 14   | (1/1) Accurately ripped


  78. ==== 记录校验日志 06BA88CFF9F83FBCF6ED67F07F2E6F38A941FF0705A0FFD23B4F0EA63D260EF2 ====
复制代码

评分

参与人数 1音符 +30 炫币 +30 收起 理由
秋风 + 30 + 30 赞一个!

查看全部评分

发表于 2016-9-20 03:26:33 | 显示全部楼层
谢谢分享好音乐
回复 支持 反对

使用道具 举报

发表于 2016-9-20 14:21:42 | 显示全部楼层
这种CD真是不多见啊
回复 支持 反对

使用道具 举报

发表于 2016-9-20 14:23:16 | 显示全部楼层
谢谢分享!
回复 支持 反对

使用道具 举报

发表于 2016-9-20 15:23:08 | 显示全部楼层
谢谢楼主的好碟。
回复 支持 反对

使用道具 举报

发表于 2016-9-20 16:27:28 | 显示全部楼层
!!!!!!!!!
回复 支持 反对

使用道具 举报

发表于 2016-9-20 16:58:36 | 显示全部楼层
谢谢分享春天的音乐!!
回复 支持 反对

使用道具 举报

发表于 2016-9-20 17:28:50 | 显示全部楼层
整張都是春天的格調!感謝分享!收藏了
回复 支持 反对

使用道具 举报

发表于 2016-9-20 22:01:42 | 显示全部楼层
非常赏心悦目的古典,谢谢楼主分享
回复 支持 反对

使用道具 举报

发表于 2016-9-20 22:42:28 | 显示全部楼层
谢谢分享,值得收藏
回复 支持 反对

使用道具 举报

发表于 2016-9-21 08:42:17 | 显示全部楼层
謝謝分享。
回复 支持 反对

使用道具 举报

发表于 2016-9-21 11:13:08 | 显示全部楼层
此专辑肯定非常好听优美
回复 支持 反对

使用道具 举报

发表于 2016-9-21 12:34:15 | 显示全部楼层
收藏了,多谢分享
回复 支持 反对

使用道具 举报

 成长值: 8545

发表于 2016-9-21 12:40:08 | 显示全部楼层
谢谢楼主分享!!!
回复 支持 反对

使用道具 举报

发表于 2016-9-21 16:41:19 | 显示全部楼层
春天来了,花儿开了,叶子绿了,小猫小狗都热闹了。呵呵
回复 支持 反对

使用道具 举报

您需要登录后才可以回帖 登录 | 立即注册

本版积分规则

手机版|炫音音乐论坛 ( 皖ICP备13017420号-3 )皖公网安备 34082502000069号

GMT+8, 2020-2-27 21:09 , Processed in 0.142566 second(s), 35 queries , Gzip On.

Powered by Discuz! X3.4

© 2004-2017 炫音音乐论坛

快速回复 返回顶部 返回列表