查看: 1316|回复: 48

[原创] 【原抓】英国皇家爱乐乐团 - 简单的歌剧【WAV整轨/百度】

[复制链接]
发表于 2016-9-28 21:23:51 | 显示全部楼层 |阅读模式
IMG_20160428_0001.jpg
IMG_20160428_0002.jpg
IMG_20160428_0003.jpg
IMG_20160428_0004.jpg

The Royal Philharmonic Orchestra - Simply Opera
      YEAR: 1994 ID3G: 32
英国皇家爱乐乐团 - 简单的歌剧

英国皇家爱乐乐团1946年创立,1966年英国女王为乐团冠上“皇家”头衔,奠定了其在英国乐坛无可替代的地位。乐团以丰富、流畅的音色和近乎完美的配合以及对经典曲目的驾驭能力征服了世界。

乐团由一些世界上最好的指挥家出任指挥,最知名的包括鲁道夫&#8226;肯佩、安塔尔&#8226;多拉第、安德雷&#8226;普列文、弗拉基米尔&#8226;阿什肯纳吉等。在丹尼尔&#8226;盖提(自1996年来任音乐总监)的出色领导下,皇家爱乐乐团蒸蒸日上,日程表被一系列音乐会、巡演和录音排满。乐团很高兴的宣布:自2009/2010演出季开始,查尔斯&#8226;迪图瓦将成为乐团的艺术总监和首席指挥,同时丹尼尔&#8226;盖提仍将出任荣誉指挥。 乐团立足伦敦,其2007/2008皇家阿尔伯特音乐厅音乐季包括若干场特别音乐会,涵盖从流行经典如霍尔斯特的<行星组曲>和柯萨柯夫的<天方夜谭>到最好的百老汇和电影音乐。这一系列与许多国际著名艺术家合作,包括莱昂纳德&#8226;斯拉特金、托马斯&#8226;阿伦爵士及约翰&#8226;里尔。皇家爱乐乐团在诸如卡多甘音乐厅(Cadogan)等伦敦最新的音乐场所也会举办部分音乐会,这是对在皇家阿尔伯特音乐厅大量交响乐演出的补充。乐团同样也渴望在2008年春新落成的皇家节庆音乐厅演出新的音乐会系列。

皇家爱乐乐团以在首都的演出为起点,组织一系列地区巡演包括北安普顿、罗斯特伏特、温布尔顿、卡特福德和克劳利等。乐团在每年夏季还会为国内数万名观众演出露天音乐会,包括2007年8月在水晶宫新启动的系列演出。

作为一支国际性交响乐团,皇家爱乐乐团最近五年内已在超过30个国家举行了巡回演出,包括在梵蒂冈为保罗二世教皇所作的演出及在中国天安门广场的演出等。最近的巡演包括皇家爱乐乐团的首次埃及巡演,与莱昂纳德&#8226;斯拉特金合作在开罗及亚历山大歌剧院家演出,此外还有在西班牙、意大利和德国的演出。

皇家爱乐乐团通过一个富有创新及活力的社区和教育计划拓展着她的艺术工作。使用音乐这样一个有力的工具,乐团实施了与年轻的无家可归者、青年俱乐部、缓刑犯、学校及家庭相关的系列项目。乐团社区及教育项目推动了反映个性和乐团背景的现场音乐演出的发展。 皇家爱乐乐团为各主要唱片公司录制唱片,乐团亦有着她自己的唱片标签,包括非常受欢迎的“古典来了”系列。这些唱片反映了皇家爱乐乐团曲目的多样性,从流行的交响乐、合唱乐到电影经典音乐及歌舞剧的音乐都有涉及。

国际知名美籍指挥家莱昂纳德&#8226;斯拉特金是国家交响乐团的音乐总监、同事担任皇家爱乐乐团首席客座指挥及洛杉矶爱乐乐团首席客座指挥。他在北美、欧洲及远东的演出通过富有想象力的编排和对现当代交响曲目的精确诠释而令人印象深刻。

01. Carmen    [0:19:39.35]
02. Rigoletto    [0:18:10.35]
03. Madame Butterfly    [0:17:17.22]
04. La Boheme    [0:18:59.28]

游客,如果您要查看本帖隐藏内容请回复,如果您想免回复、免金币,直接查看内容,请开通炫音VIP


请点击此处下载

请先注册会员后在进行下载

已注册会员,请先登录后下载

文件名称:提取码.rar 
下载次数:72  文件大小:97 Bytes  售价:5金币 [记录]
下载权限: 不限   VIP会员打折   [购买VIP]   [充值金币]



  1. Exact Audio Copy V1.1 from 23. June 2015

  2. EAC 抓取日志文件从5. 五月 2016, 14:53

  3. The Royal Philharmonic Orchestra / Simply Opera

  4. 使用驱动器  :TSSTcorpCDDVDW SH-224DB   Adapter: 1  ID: 0

  5. 读取模式      : 可靠Secure
  6. 使用精确流     : 是
  7. 清空音频缓存    : 是
  8. 使用 C2 指示器 : 否

  9. 读取偏移校正:               : 6
  10. 读取 Lead-In 和 Lead-Out : 否
  11. 用静音填充抓取中丢失偏移的采样       : 是
  12. 去除首尾静音块               : 否
  13. 在CRC 计算中使用了空样本       : 是
  14. 已用接口                  : Win NT 及 2000 本地 Win32 接口

  15. 所用输出模式: : 内部 WAV 函数
  16. 样本格式    : 44.100 Hz; 16 Bit; 立体声


  17. 已抓取 CD 的 TOC

  18.      音轨 |    起始    |    长度    |  起始扇区  |  结束扇区  
  19.     --------------------------------------------
  20.       1 |  0:00.00 | 19:39.35 |      0 |  88459
  21.       2 | 19:39.35 | 18:10.35 |  88460 | 170244
  22.       3 | 37:49.70 | 17:17.22 | 170245 | 248041
  23.       4 | 55:07.17 | 18:59.28 | 248042 | 333494


  24. 范围状态及错误

  25. 已选择范围

  26.      文件名 F:\古典原抓\The Royal Philharmonic Orchestra - Simply Opera\The Royal Philharmonic Orchestra - Simply Opera.wav

  27.      峰值电平 100.0 %
  28.      抓取速度 4.8 X
  29.      范围质量 100.0 %
  30.      复制 CRC D0D79E6B
  31.      复制成功

  32. 没有错误发生


  33. AccurateRip 摘要

  34. 音轨  1  不能准确地校验 (确认 1)  [3A4FD407], 返回 AccurateRip [15F314DA]  (AR v2)
  35. 音轨  2  不能准确地校验 (确认 1)  [296F36A8], 返回 AccurateRip [D0A6812F]  (AR v2)
  36. 音轨  3  不能准确地校验 (确认 1)  [C474EF26], 返回 AccurateRip [83C2598E]  (AR v2)
  37. 音轨  4  不能准确地校验 (确认 1)  [7A33B665], 返回 AccurateRip [3653A48C]  (AR v2)

  38. 没有音轨被准确核实
  39. 你的版本可能与数据库的版本不同

  40. 状态报告结尾

  41. ---- CUETools DB Plugin V2.1.6

  42. [CTDB TOCID: JHWJ2wCQ.y0huJgHPIqyAav7YXk-] disk not present in database
  43. Submit result: 请求被中止: 请求已被取消。


  44. ==== 记录校验日志 E68176F37964343612157AE19982CB93399EB9954C3658C9C669D59A5F6C59DC ====
复制代码

评分

参与人数 1音符 +30 炫币 +30 收起 理由
秋风 + 30 + 30 赞一个!

查看全部评分

发表于 2016-9-29 06:11:15 | 显示全部楼层
谢谢楼主。好听的歌剧
回复 支持 反对

使用道具 举报

发表于 2016-9-29 07:54:47 | 显示全部楼层
多谢分享好碟!
回复 支持 反对

使用道具 举报

发表于 2016-9-29 08:15:06 | 显示全部楼层
非常感谢楼主额分享
回复 支持 反对

使用道具 举报

发表于 2016-9-29 08:29:38 | 显示全部楼层
多谢分享英国皇家爱乐乐团
回复 支持 反对

使用道具 举报

发表于 2016-9-29 11:24:15 | 显示全部楼层
谢谢楼主的好碟
回复 支持 反对

使用道具 举报

发表于 2016-9-29 11:56:27 | 显示全部楼层
英国皇家爱乐乐团精彩录音
回复 支持 反对

使用道具 举报

发表于 2016-9-30 12:43:40 | 显示全部楼层
简单歌剧? 是“节选”的意思吗? 谢谢分享!
回复 支持 反对

使用道具 举报

发表于 2016-9-30 13:00:34 | 显示全部楼层
感谢楼主分享
回复 支持 反对

使用道具 举报

发表于 2016-9-30 20:46:23 | 显示全部楼层
谢谢分享这美妙的音乐!
回复 支持 反对

使用道具 举报

已抛锚 成长值: 6885

发表于 2016-9-30 23:11:31 | 显示全部楼层
耳熟能详的曲目,谢谢分享美妙音乐!
回复 支持 反对

使用道具 举报

发表于 2016-10-1 13:55:27 | 显示全部楼层
非常棒的歌剧組合音樂
回复 支持 反对

使用道具 举报

发表于 2016-10-2 18:17:55 | 显示全部楼层
谢谢分享好音乐
回复 支持 反对

使用道具 举报

发表于 2016-10-3 12:14:54 | 显示全部楼层
好音樂值得收藏!
回复 支持 反对

使用道具 举报

发表于 2016-10-5 18:37:47 | 显示全部楼层
英国皇家爱乐乐团 , 品質有保證. 謝謝分享
回复 支持 反对

使用道具 举报

您需要登录后才可以回帖 登录 | 立即注册

本版积分规则

手机版|炫音音乐论坛 ( 皖ICP备13017420号-3 )皖公网安备 34082502000069号

GMT+8, 2018-9-23 20:29 , Processed in 0.126934 second(s), 16 queries , Gzip On, File On.

Powered by Discuz! X3.4

© 2004-2017 炫音音乐论坛

快速回复 返回顶部 返回列表