查看: 4377|回复: 137

[新世纪音乐] 【原抓】陈林 - 时尚萨克斯十年【WAV整轨/百度】

  [复制链接]
发表于 2016-10-3 09:56:14 | 显示全部楼层 |阅读模式
IMG_20160420_0071.jpg
IMG_20160420_0072.jpg
IMG_20160420_0073.jpg
IMG_20160420_0074.jpg
IMG_20160420_0075.jpg
IMG_20160420_0076.jpg
IMG_20160420_0077.jpg

陈林 - 时尚萨克斯十年

《时尚·萨克斯:十年》是精选乐坛情歌巨作,集合了浪漫的萨克斯旋律,是让您心情飞扬的好音乐。悠悠的萨克斯,吹响的是那淡淡的感伤,浓浓的思绪;吹出的是你的往昔,你的等待,你的情怀,恰如心在吟唱,沏上一杯浓香的咖啡,耳边飘起怀旧与感性的萨克斯。没想到,悠悠的萨克斯也可有如此豪气,灵秀。才发现这就是生活,这就是享受。

01. 当年情    [0:04:17.07]
02. 十年    [0:03:29.41]
03. 爱你一万年    [0:04:53.63]
04. 有多少爱可以重来    [0:04:52.04]
05. 一生何求    [0:04:51.22]
06. 听海    [0:05:19.41]
07. 每天爱你多一些    [0:04:51.06]
08. 其实你不懂我的心    [0:03:03.66]
09. 花样年华    [0:04:04.54]
10. 月光爱人    [0:03:39.50]
11. 原来你什么都不想要    [0:04:45.14]
12. 执迷不悔    [0:04:29.19]
13. 阿郎恋曲    [0:05:12.16]
14. 只要你过得比我好    [0:04:16.59]

游客,如果您要查看本帖隐藏内容请回复,如果您想免回复、免金币,直接查看内容,请开通炫音VIP


请点击此处下载

请先注册会员后在进行下载

已注册会员,请先登录后下载

文件名称:提取码.rar 
下载次数:168  文件大小:97 Bytes  售价:5金币 [记录]
下载权限: 不限   VIP会员打折   [购买VIP]   [充值金币]



  1. Exact Audio Copy V1.1 from 23. June 2015

  2. EAC 抓取日志文件从21. 四月 2016, 16:32

  3. 陈林 / 时尚萨克斯十年

  4. 使用驱动器  :TSSTcorpCDDVDW SH-224DB   Adapter: 1  ID: 0

  5. 读取模式      : 可靠Secure
  6. 使用精确流     : 是
  7. 清空音频缓存    : 是
  8. 使用 C2 指示器 : 否

  9. 读取偏移校正:               : 6
  10. 读取 Lead-In 和 Lead-Out : 否
  11. 用静音填充抓取中丢失偏移的采样       : 是
  12. 去除首尾静音块               : 否
  13. 在CRC 计算中使用了空样本       : 是
  14. 已用接口                  : Win NT 及 2000 本地 Win32 接口

  15. 所用输出模式: : 内部 WAV 函数
  16. 样本格式    : 44.100 Hz; 16 Bit; 立体声


  17. 已抓取 CD 的 TOC

  18.      音轨 |    起始    |    长度    |  起始扇区  |  结束扇区  
  19.     --------------------------------------------
  20.       1 |  0:00.00 |  4:17.07 |      0 |  19281
  21.       2 |  4:17.07 |  3:29.41 |  19282 |  34997
  22.       3 |  7:46.48 |  4:53.63 |  34998 |  57035
  23.       4 | 12:40.36 |  4:52.04 |  57036 |  78939
  24.       5 | 17:32.40 |  4:51.22 |  78940 | 100786
  25.       6 | 22:23.62 |  5:19.41 | 100787 | 124752
  26.       7 | 27:43.28 |  4:51.06 | 124753 | 146583
  27.       8 | 32:34.34 |  3:03.66 | 146584 | 160374
  28.       9 | 35:38.25 |  4:04.54 | 160375 | 178728
  29.      10 | 39:43.04 |  3:39.50 | 178729 | 195203
  30.      11 | 43:22.54 |  4:45.14 | 195204 | 216592
  31.      12 | 48:07.68 |  4:29.19 | 216593 | 236786
  32.      13 | 52:37.12 |  5:12.16 | 236787 | 260202
  33.      14 | 57:49.28 |  4:16.59 | 260203 | 279461


  34. 范围状态及错误

  35. 已选择范围

  36.      文件名 F:\纯音乐\陈林 - 时尚萨克斯十年\陈林 - 时尚萨克斯十年.wav

  37.      峰值电平 96.6 %
  38.      抓取速度 4.5 X
  39.      范围质量 100.0 %
  40.      复制 CRC F4F0FF1B
  41.      复制成功

  42. 没有错误发生


  43. AccurateRip 摘要

  44. 音轨  1  在数据库中不存在
  45. 音轨  2  在数据库中不存在
  46. 音轨  3  在数据库中不存在
  47. 音轨  4  在数据库中不存在
  48. 音轨  5  在数据库中不存在
  49. 音轨  6  在数据库中不存在
  50. 音轨  7  在数据库中不存在
  51. 音轨  8  在数据库中不存在
  52. 音轨  9  在数据库中不存在
  53. 音轨 10  在数据库中不存在
  54. 音轨 11  在数据库中不存在
  55. 音轨 12  在数据库中不存在
  56. 音轨 13  在数据库中不存在
  57. 音轨 14  在数据库中不存在

  58. 没有任何音轨在 AccurateRip 数据库中有记录

  59. 状态报告结尾

  60. ---- CUETools DB Plugin V2.1.6

  61. [CTDB TOCID: y4onI_HtdqsFB_chrvfA3dGas7Q-] disk not present in database
  62. Submit result: 请求被中止: 请求已被取消。


  63. ==== 记录校验日志 85C6D00FCDD57374F6C3B3C094F31BF1E914733461C8906E8AE65C890D6037BD ====
复制代码

评分

参与人数 1音符 +30 炫币 +30 收起 理由
秋风 + 30 + 30 赞一个!

查看全部评分

发表于 2016-10-3 11:07:36 | 显示全部楼层

评分

参与人数 1音符 +2 炫币 +2 收起 理由
ynsy + 2 + 2 3Q

查看全部评分

回复 支持 反对

使用道具 举报

发表于 2016-10-3 11:15:04 | 显示全部楼层
谢谢分享时尚萨克斯十年

点评

年度优秀会员   发表于 2016-10-3 11:18
回复 支持 反对

使用道具 举报

发表于 2016-10-3 12:12:33 | 显示全部楼层
好听!!!!棒!!!!
回复 支持 反对

使用道具 举报

发表于 2016-10-3 12:31:01 | 显示全部楼层
发现这就是生活
回复 支持 反对

使用道具 举报

发表于 2016-10-3 18:33:09 | 显示全部楼层
很不错的萨克斯,谢谢楼主分享。
回复 支持 反对

使用道具 举报

发表于 2016-10-3 21:36:18 | 显示全部楼层
感谢精彩分享!!!
回复 支持 反对

使用道具 举报

发表于 2016-10-4 08:26:13 | 显示全部楼层
多谢分享,楼主辛苦了,下来试听。
回复 支持 反对

使用道具 举报

发表于 2016-10-4 08:46:10 | 显示全部楼层
谢谢分享~
回复 支持 反对

使用道具 举报

发表于 2016-10-4 09:38:28 | 显示全部楼层
感谢精彩分享!!!
回复 支持 反对

使用道具 举报

发表于 2016-10-4 10:46:12 | 显示全部楼层
好音乐我喜欢
回复 支持 反对

使用道具 举报

发表于 2016-10-4 12:20:34 | 显示全部楼层
为什么要卖音符呢?我快买不起了
回复 支持 反对

使用道具 举报

头像被屏蔽
发表于 2016-10-4 13:58:17 | 显示全部楼层
提示: 作者被禁止或删除 内容自动屏蔽
回复 支持 反对

使用道具 举报

发表于 2016-10-4 16:38:31 | 显示全部楼层
非常喜欢,谢谢分享
回复 支持 反对

使用道具 举报

发表于 2016-10-5 21:33:11 | 显示全部楼层
好听。谢谢分享
回复 支持 反对

使用道具 举报

您需要登录后才可以回帖 登录 | 立即注册

本版积分规则

手机版|炫音音乐论坛 ( 皖ICP备13017420号-3 )皖公网安备 34082502000069号

GMT+8, 2018-8-19 17:57 , Processed in 0.079597 second(s), 18 queries , Gzip On, File On.

Powered by Discuz! X3.4

© 2004-2017 炫音音乐论坛

快速回复 返回顶部 返回列表