查看: 4454|回复: 108

[新世纪音乐] 【原抓】陈林 - 时尚萨克斯那一天【WAV整轨/百度】

  [复制链接]
发表于 2016-10-3 10:15:47 | 显示全部楼层 |阅读模式
IMG_20160412_0001.jpg
IMG_20160412_0002.jpg
IMG_20160412_0003.jpg
IMG_20160412_0004.jpg
IMG_20160412_0005.jpg
IMG_20160412_0006.jpg
IMG_20160412_0007.jpg

陈林 - 时尚萨克斯那一天

萨克斯独奏:陈林!休闲生活中的优质感受,集合了浪漫的萨克斯旋律,精选乐坛情歌巨作。

01. 那一天    [0:03:44.74]
02. 流星雨    [0:04:33.56]
03. 一路上有你    [0:04:46.29]
04. 其实不想走    [0:04:45.02]
05. 半梦半醒之间    [0:03:53.64]
06. 忘记你我做不到    [0:04:50.68]
07. 刀剑如梦    [0:04:48.30]
08. 情网    [0:04:14.06]
09. 下沙    [0:05:45.05]
10. 大约在冬季    [0:03:48.44]
11. 无情的雨无情的你    [0:04:01.32]
12. 让我欢喜让我忧    [0:04:41.62]
13. 心太软    [0:05:54.17]
14. 掌声响起    [0:03:54.07]

游客,如果您要查看本帖隐藏内容请回复,如果您想免回复、免金币,直接查看内容,请开通炫音VIP


请点击此处下载

请先注册会员后在进行下载

已注册会员,请先登录后下载

文件名称:提取码.rar 
下载次数:168  文件大小:97 Bytes  售价:5金币 [记录]
下载权限: 不限   VIP会员打折   [购买VIP]   [充值金币]



  1. Exact Audio Copy V1.1 from 23. June 2015

  2. EAC 抓取日志文件从20. 四月 2016, 14:11

  3. 陈林 / 时尚萨克斯那一天

  4. 使用驱动器  :TSSTcorpCDDVDW SH-224DB   Adapter: 1  ID: 0

  5. 读取模式      : 可靠Secure
  6. 使用精确流     : 是
  7. 清空音频缓存    : 是
  8. 使用 C2 指示器 : 否

  9. 读取偏移校正:               : 6
  10. 读取 Lead-In 和 Lead-Out : 否
  11. 用静音填充抓取中丢失偏移的采样       : 是
  12. 去除首尾静音块               : 否
  13. 在CRC 计算中使用了空样本       : 是
  14. 已用接口                  : Win NT 及 2000 本地 Win32 接口

  15. 所用输出模式: : 内部 WAV 函数
  16. 样本格式    : 44.100 Hz; 16 Bit; 立体声


  17. 已抓取 CD 的 TOC

  18.      音轨 |    起始    |    长度    |  起始扇区  |  结束扇区  
  19.     --------------------------------------------
  20.       1 |  0:00.00 |  3:44.74 |      0 |  16873
  21.       2 |  3:44.74 |  4:33.56 |  16874 |  37404
  22.       3 |  8:18.55 |  4:46.29 |  37405 |  58883
  23.       4 | 13:05.09 |  4:45.02 |  58884 |  80260
  24.       5 | 17:50.11 |  3:53.64 |  80261 |  97799
  25.       6 | 21:44.00 |  4:50.68 |  97800 | 119617
  26.       7 | 26:34.68 |  4:48.30 | 119618 | 141247
  27.       8 | 31:23.23 |  4:14.06 | 141248 | 160303
  28.       9 | 35:37.29 |  5:45.05 | 160304 | 186183
  29.      10 | 41:22.34 |  3:48.44 | 186184 | 203327
  30.      11 | 45:11.03 |  4:01.32 | 203328 | 221434
  31.      12 | 49:12.35 |  4:41.62 | 221435 | 242571
  32.      13 | 53:54.22 |  5:54.17 | 242572 | 269138
  33.      14 | 59:48.39 |  3:54.07 | 269139 | 286695


  34. 范围状态及错误

  35. 已选择范围

  36.      文件名 F:\纯音乐\陈林 - 时尚萨克斯那一天\陈林 - 时尚萨克斯那一天.wav

  37.      峰值电平 91.7 %
  38.      抓取速度 4.4 X
  39.      范围质量 100.0 %
  40.      复制 CRC B118FD74
  41.      复制成功

  42. 没有错误发生


  43. AccurateRip 摘要

  44. 音轨  1  在数据库中不存在
  45. 音轨  2  在数据库中不存在
  46. 音轨  3  在数据库中不存在
  47. 音轨  4  在数据库中不存在
  48. 音轨  5  在数据库中不存在
  49. 音轨  6  在数据库中不存在
  50. 音轨  7  在数据库中不存在
  51. 音轨  8  在数据库中不存在
  52. 音轨  9  在数据库中不存在
  53. 音轨 10  在数据库中不存在
  54. 音轨 11  在数据库中不存在
  55. 音轨 12  在数据库中不存在
  56. 音轨 13  在数据库中不存在
  57. 音轨 14  在数据库中不存在

  58. 没有任何音轨在 AccurateRip 数据库中有记录

  59. 状态报告结尾

  60. ---- CUETools DB Plugin V2.1.6

  61. [CTDB TOCID: YMDloz7woYTO3LGxrMy6X_Ptsxk-] disk not present in database
  62. Submit result: 请求被中止: 请求已被取消。


  63. ==== 记录校验日志 E6BA1048F3BB038304B51EF6D72F224CFCB181D453EC6C481EC78D6F6A2D464A ====
复制代码

评分

参与人数 1音符 +30 炫币 +30 收起 理由
秋风 + 30 + 30 赞一个!

查看全部评分

发表于 2016-10-3 10:53:03 | 显示全部楼层
提取码.rar (97 Bytes, 下载次数: 0, 售价: 5 音符)
回复 支持 反对

使用道具 举报

发表于 2016-10-3 11:12:17 | 显示全部楼层
谢谢分享时尚萨克斯那一天
回复 支持 反对

使用道具 举报

发表于 2016-10-3 12:40:24 | 显示全部楼层
好听!!!!棒!!!!
回复 支持 反对

使用道具 举报

发表于 2016-10-3 15:46:51 | 显示全部楼层
感谢分享,谢谢
回复 支持 反对

使用道具 举报

发表于 2016-10-3 16:21:14 | 显示全部楼层
感谢精彩分享!!!
回复 支持 反对

使用道具 举报

发表于 2016-10-3 17:21:32 | 显示全部楼层
藏音冥想很好的节日礼物,感谢楼主
回复 支持 反对

使用道具 举报

发表于 2016-10-3 17:58:05 | 显示全部楼层
谢谢楼主分享!!!
回复 支持 反对

使用道具 举报

发表于 2016-10-3 18:30:27 | 显示全部楼层
谢谢楼主分享,节日快乐。
回复 支持 反对

使用道具 举报

发表于 2016-10-4 06:56:00 | 显示全部楼层
很好的唱片,感谢楼主分享好音乐!
回复 支持 反对

使用道具 举报

发表于 2016-10-4 08:27:52 | 显示全部楼层
多谢分享,楼主辛苦了,下来试听。
回复 支持 反对

使用道具 举报

发表于 2016-10-4 08:43:41 | 显示全部楼层
谢谢分享~
回复 支持 反对

使用道具 举报

发表于 2016-10-4 10:25:36 | 显示全部楼层
感谢精彩分享!!!
回复 支持 反对

使用道具 举报

发表于 2016-10-4 10:44:15 | 显示全部楼层
好音乐我喜欢
回复 支持 反对

使用道具 举报

发表于 2016-10-4 13:42:07 | 显示全部楼层

谢谢分享,下来听听
回复 支持 反对

使用道具 举报

您需要登录后才可以回帖 登录 | 立即注册

本版积分规则

手机版|炫音音乐论坛 ( 皖ICP备13017420号-3 )皖公网安备 34082502000069号

GMT+8, 2018-8-20 18:55 , Processed in 0.110902 second(s), 21 queries , Gzip On, File On.

Powered by Discuz! X3.4

© 2004-2017 炫音音乐论坛

快速回复 返回顶部 返回列表