查看: 6154|回复: 201

[新世纪音乐] 【原抓】陈林 - 迷人萨克斯风掌声响起【WAV整轨/百度】

  [复制链接]
发表于 2016-10-25 10:04:58 | 显示全部楼层 |阅读模式
IMG_20160421_0008.jpg
IMG_20160421_0012.jpg
IMG_20160421_0013.jpg
IMG_20160421_0009.jpg

陈林 - 迷人萨克斯风掌声响起

《迷人萨克斯风:掌声响起》悠悠的萨克斯,吹响的是那淡淡的感伤,浓浓的思绪;吹出的是你的往昔,你的等待,你的情怀,恰如心在吟唱,沏上一杯浓香的咖啡,耳边飘起怀旧与感性的萨克斯。没想到,悠悠的萨克斯也可有如此豪气,灵秀。才发现这就是生活……

01. 其实你不懂我的心    [0:03:09.00]
02. 无情的雨无情的你    [0:04:04.00]
03. 让我欢喜让我忧    [0:04:44.00]
04. 穿过你的黑发的我的手    [0:03:16.00]
05. 掌声响起    [0:04:02.00]
06. 迟到    [0:02:49.00]
07. 再来一杯    [0:03:17.00]
08. 不管你是谁    [0:02:31.00]
09. 旧梦何处寻    [0:04:13.00]
10. 风的季节    [0:03:56.00]
11. 北风    [0:04:19.00]
12. 浪迹天涯    [0:03:46.00]
13. 同桌的你    [0:04:33.00]
14. 我和你    [0:03:51.00]
15. 爱的箴言    [0:04:46.00]

游客,如果您要查看本帖隐藏内容请回复


请点击此处下载

请先注册会员后在进行下载

已注册会员,请先登录后下载

文件名称:提取码.rar 
下载次数:243  文件大小:97 Bytes  售价:5金币 [记录]
下载权限: 不限   VIP会员打折   [购买VIP]   [充值金币]



  1. Exact Audio Copy V1.1 from 23. June 2015

  2. EAC 抓取日志文件从22. 四月 2016, 9:44

  3. 陈林 / 迷人萨克斯风掌声响起

  4. 使用驱动器  :TSSTcorpCDDVDW SH-224DB   Adapter: 1  ID: 0

  5. 读取模式      : 可靠Secure
  6. 使用精确流     : 是
  7. 清空音频缓存    : 是
  8. 使用 C2 指示器 : 否

  9. 读取偏移校正:               : 6
  10. 读取 Lead-In 和 Lead-Out : 否
  11. 用静音填充抓取中丢失偏移的采样       : 是
  12. 去除首尾静音块               : 否
  13. 在CRC 计算中使用了空样本       : 是
  14. 已用接口                  : Win NT 及 2000 本地 Win32 接口

  15. 所用输出模式: : 内部 WAV 函数
  16. 样本格式    : 44.100 Hz; 16 Bit; 立体声


  17. 已抓取 CD 的 TOC

  18.      音轨 |    起始    |    长度    |  起始扇区  |  结束扇区  
  19.     --------------------------------------------
  20.       1 |  0:00.00 |  3:09.00 |      0 |  14174
  21.       2 |  3:09.00 |  4:04.00 |  14175 |  32474
  22.       3 |  7:13.00 |  4:44.00 |  32475 |  53774
  23.       4 | 11:57.00 |  3:16.00 |  53775 |  68474
  24.       5 | 15:13.00 |  4:02.00 |  68475 |  86624
  25.       6 | 19:15.00 |  2:49.00 |  86625 |  99299
  26.       7 | 22:04.00 |  3:17.00 |  99300 | 114074
  27.       8 | 25:21.00 |  2:31.00 | 114075 | 125399
  28.       9 | 27:52.00 |  4:13.00 | 125400 | 144374
  29.      10 | 32:05.00 |  3:56.00 | 144375 | 162074
  30.      11 | 36:01.00 |  4:19.00 | 162075 | 181499
  31.      12 | 40:20.00 |  3:46.00 | 181500 | 198449
  32.      13 | 44:06.00 |  4:33.00 | 198450 | 218924
  33.      14 | 48:39.00 |  3:51.00 | 218925 | 236249
  34.      15 | 52:30.00 |  4:46.00 | 236250 | 257699


  35. 范围状态及错误

  36. 已选择范围

  37.      文件名 F:\纯音乐\陈林 - 迷人萨克斯风掌声响起\陈林 - 迷人萨克斯风掌声响起.wav

  38.      峰值电平 100.0 %
  39.      抓取速度 4.3 X
  40.      范围质量 100.0 %
  41.      复制 CRC 5094BCFE
  42.      复制成功

  43. 没有错误发生


  44. AccurateRip 摘要

  45. 音轨  1  在数据库中不存在
  46. 音轨  2  在数据库中不存在
  47. 音轨  3  在数据库中不存在
  48. 音轨  4  在数据库中不存在
  49. 音轨  5  在数据库中不存在
  50. 音轨  6  在数据库中不存在
  51. 音轨  7  在数据库中不存在
  52. 音轨  8  在数据库中不存在
  53. 音轨  9  在数据库中不存在
  54. 音轨 10  在数据库中不存在
  55. 音轨 11  在数据库中不存在
  56. 音轨 12  在数据库中不存在
  57. 音轨 13  在数据库中不存在
  58. 音轨 14  在数据库中不存在
  59. 音轨 15  在数据库中不存在

  60. 没有任何音轨在 AccurateRip 数据库中有记录

  61. 状态报告结尾

  62. ---- CUETools DB Plugin V2.1.6

  63. [CTDB TOCID: .YZh9o0JnJG.WlIfgjDGu8VRi5c-] disk not present in database
  64. Submit result: 请求被中止: 请求已被取消。


  65. ==== 记录校验日志 72E48CCD9199C6F2D9B7E64D234790AEDC7E9897FB8763703AC18871C61EF30B ====
复制代码

点评

“聆听经典HIFI女人篇 3C””已经支付了“音符”,但是资源已经取消下载。请解释?  发表于 2016-10-26 07:22

评分

参与人数 1音符 +30 炫币 +30 收起 理由
秋风 + 30 + 30 赞一个!

查看全部评分

发表于 2016-10-25 11:40:14 | 显示全部楼层
售价: 5 音符
回复 支持 反对

使用道具 举报

发表于 2016-10-25 17:52:38 | 显示全部楼层
欢喜萨克斯风.....谢谢楼主
回复 支持 反对

使用道具 举报

头像被屏蔽
发表于 2016-10-25 19:33:33 | 显示全部楼层
提示: 作者被禁止或删除 内容自动屏蔽
回复 支持 反对

使用道具 举报

发表于 2016-10-25 21:20:03 | 显示全部楼层
谢谢楼主提供的经典作品。
回复 支持 反对

使用道具 举报

发表于 2016-10-25 23:21:26 | 显示全部楼层
这个音乐不错。经典老歌的萨克斯风。谢谢!
回复 支持 反对

使用道具 举报

发表于 2016-10-26 01:27:54 | 显示全部楼层
感谢楼主的辛勤劳动。
回复 支持 反对

使用道具 举报

发表于 2016-10-26 07:14:21 | 显示全部楼层
多谢分享,楼主辛苦了,下来试听。
回复 支持 反对

使用道具 举报

发表于 2016-10-26 08:05:04 | 显示全部楼层
全部都是很经典的歌曲。
回复 支持 反对

使用道具 举报

发表于 2016-10-26 14:34:40 | 显示全部楼层
谢谢分享
回复 支持 反对

使用道具 举报

发表于 2016-10-26 19:56:07 | 显示全部楼层
萨克斯好听谢谢楼主分享!!!
回复 支持 反对

使用道具 举报

发表于 2016-10-26 20:21:05 | 显示全部楼层
谢谢,下载收藏
回复 支持 反对

使用道具 举报

发表于 2016-10-26 21:54:51 | 显示全部楼层
听到昏昏欲睡,真是靡靡之音啊
回复 支持 反对

使用道具 举报

发表于 2016-10-26 23:49:58 | 显示全部楼层
售价: 5 音符
回复 支持 反对

使用道具 举报

发表于 2016-10-27 06:56:53 | 显示全部楼层
谢谢分享,很喜欢的音乐
回复 支持 反对

使用道具 举报

您需要登录后才可以回帖 登录 | 立即注册

本版积分规则

手机版|Archiver|炫音音乐论坛 ( 皖ICP备13017420号-3 )皖公网安备 34082502000069号

GMT+8, 2018-5-25 13:27 , Processed in 0.059812 second(s), 22 queries , Gzip On, WinCache On.

Powered by Discuz! X3.4

© 2004-2017 炫音音乐论坛

快速回复 返回顶部 返回列表