查看: 3332|回复: 109

【原创】风华国韵-春秋战国·世界电影音乐专辑 金玥[龙源之声 ]HQCD【WAV 百度】

  [复制链接]
发表于 2017-2-24 20:37:17 | 显示全部楼层 |阅读模式
本帖最后由 dwdwweii 于 2017-2-24 21:19 编辑


◎ 本原抓作品僅用於試聽,嚴禁用於任何商業用途!
◎ 請於試聽後24小時內刪除,如果喜歡請自覺購買正版光碟!
◎ Dwdwweii發佈的原抓作品,欢迎轉載各大PT及音樂论坛。,謝謝
◎ 请在帖子顶部注明出处及作者,并保留后缀。
◎ 本音樂版權歸唱片公司和歌手所有,如侵犯您的權益,請通知我,我將及時刪除。













专辑中文名: 风华国韵-春秋战国·世界电影音乐专辑
专辑英文名: Spring and Autumn and Warring States
艺术家: 金玥
音乐类型: 民乐
版本: [龙源之声 CCD-2781]HQCD
发行时间: 2010年05月27日
地区: 大陆
出版:中国唱片深圳公司
出品:北京龙源之声国际文化传播公司
唱片编号:CCD-2781
商品条码:9787799920092
出品人:田峰
总策划:林烁 李嘉 刘晓康 薛强
制作人:张春一
制作统筹:张鹤
编曲:李凯
二胡/中胡:金玥
笛子:戴亚
笛子/箫/埙:丁晓达
琵琶:石娟
古筝:李晗
古琴:赵晓霞
箜篌:吴琳
京胡:刘铁山
录音师:李小沛
录音助理:王恒 / 鹿楠楠
母带制作:李小沛
工程师:王恒
后期母带处理:日本JVC技术处理中心
录音棚:中央电视台480平方米录音棚
资源出处:Dwdwweii
资源格式: WAV整轨/全扫描
专辑介绍:

2010年北京龙源之声国际文化传播有限公司重拳出击
再次轰动发烧界的顶级发烧天碟《春秋战国》

  专辑收录十首电影音乐(其中五首原创曲),由中国著名青年二胡演奏家金玥领衔演奏、中国顶尖民族器乐演奏家倾情奉献,著名录音师李小沛在中央电视台录音棚录音制作。
  《春秋战国》专辑融合“古典、民族、流行”等不同音乐语言,打破了以往传统规则的演奏、创作与制作模式,以先锋派方式跨界交融,运用多种演奏技巧,脱离琴弦约束,独树一帜。 专辑选录的曲目表达了含蓄、写意、唯美、空灵的音乐意境,体现了不同时代、不同情节、不同人物的情怀与气质,以中西合璧的风格、强烈的民族英雄主义色彩展示了独特的中国魅力。专辑期望给你带来新的、超乎自然的审美体现。

  继轰动发烧界的原创音乐《清明上河图》、《三国》之后又一顶级发烧天碟——《春秋战国》,经过超乎常人想象的编曲、采样和创作,到进棚后史无前例的超规格录音、缩混工作,并远赴东瀛对母带进行KZHD技术处理;子碟亦使用日本最大的光盘生产企业—日本Memory-Tech株式会社开发最新压片技术HQCD及材料加工,历经两载,终于问世。
  中国当代优秀作曲家、中央音乐学院教授、新音乐风格代表人物——李凯,以写意性的构思和音画式的笔触,以东方独一无二的二胡弦乐领衔,由中央民族乐团二胡首席金玥及其他数十位著名演奏家倾情演绎;终于完成这张华采乐章的《春秋战国》。作为"世界音乐"的发烧天碟,《春秋战国》集中了许多精彩的民间音乐原声素材,成为独具特征的音乐元素,与吹管乐和弦乐相得益彰,构成本碟发烧特质的两大支柱。
  一直不遗余力向世界推广中国音乐的北京龙源之声国际文化传播有限公司,这次与日本JVC公司再度携手,采用比XRCD24更成熟顶尖的数码音响科技KZHD,使得《春秋战国》成为一张拥有顶级发烧品质的豪华天碟。以专辑中最令人心悸的作品《春秋战国》为例,群鼓浩荡,管弦争鸣,那让听者胆战心惊的呼啸声,动态骇人,令起伏跌宕的天险尽收眼底!其惊人的音画效果和立体感,再加上如吟似诉的二胡领奏,绝不多见!
  “有幸参与了这张唱片的前期和后期工作,感触颇多。”录音师李小沛称《春秋战国》的录音与混音全过程,是他极为难忘的和值得珍视的一次录音创作,也是极为艰难的一次录音经历。由于KZHD技术要求从录音到混音全部用模拟信号记录,所有来自电声源的数码信号,均经过高指标的数码-模拟转换,而还原为模拟信号。在数字录音盛行的当今,这种在新的指标条件下“回归”模拟录音的结果,在国内尚属首例。因此可以说,《春秋战国》反映出中国音乐制作人在这一领域的眼界和勇气,也拥有了与国际同类录音作品并驾齐驱的技术含量。
  说到这,必须向发烧友介绍一下HQCD,它是由日本最大的光盘生产企业——日本Memory-Tech株式会社开发并注册了专利。较之普通CD,HQCD的创新和优越性表现在三个方面:1.采用全新的原材料;碟片采用制造液晶屏用的导光板的原材料,这种材料具有无比优越的透明度和折射率,能将CD母版的信号更精确的在光盘上记录下来。又具有注塑成型更精确的优点,从而使数字信号的记录更准确。2.采用特殊合金溅镀反射面;普通CD表面涂层一般选用铝合金,而HQCD则选用银合金,具有比普通CD高数倍的反射率。这种改善了数倍的反射率使声音波形中的网格更清晰,因而对CD母盘信号的再现能力也提高了数倍,大大提高了数字信号读取的正确率,使音质更加接近于原声 3.完美的母带处理技术 HQCD母带处理使用了日本JVC青山工作室母盘工艺大师无可挑剔的创新的K2HD母带处理技术(即K2 High Definition编解码技术)。 使CD得音质提升到高达100kHz的宽频带及24比特的高分辨率,并将这些音频信息装载在CD中的一种完美的CD音质改善技术,将普通CD的音质提升了4-5倍。来自日本的高精度材料,使HQCD的成品达到了接近原始音乐母带的完美音质的再现。
  日本JVC青山工作室首席母盘工程师袴田刚史,在《春秋战国》的母带处理上可谓用尽了心力,因为录音中可供他发挥和突出的细节实在是太丰富了,虽然整个母带处理比预期多了一周,但换来的却是近乎完美的发烧品质。
        ——资深乐评人·媒体人:杨柯文
金玥感言:

  “弘扬传统文化,构建和谐社会。”震颤人心的中国古韵正以顽强不息的生命力向世界展示他的艺术精神与价值,弘扬传统文化,造就民族英才《风华国韵》是中华儿女共同的心声!

专辑曲目:

01. 春秋战国 Spring and Autumn and Warring States [0:04:55.38]
02. 英雄 Hero [0:03:47.11]
03. 画皮 Painted Skin [0:07:25.45]
04. 勇敢的心 The Brave Heart [0:04:39.68]
05. 梅兰芳(原创) Mei Lanfang [0:06:01.48]
06. 乡村骑士 Cavalleria Rusticana [0:04:17.46]
07. 卧虎藏龙 Crouching Tiger , Hidden Dragon [0:04:02.56]
08. 香音神(原创) Gandharva [0:03:11.36]
09. 世界(原创) The World [0:03:33.58]
10. 蔡文姬(原创) Cai Wenji [0:06:01.65]


Exact Audio Copy V1.0 beta 3 from 29. August 2011

EAC extraction logfile from 11. June 2015, 11:14

國韻風華 / 春秋戰國 (電影音樂專輯 二胡)

Used drive  : YAMAHA  CRW8424E   Adapter: 1  ID: 1

Read mode               : Secure
Utilize accurate stream : Yes
Defeat audio cache      : Yes
Make use of C2 pointers : No

Read offset correction                      : 117
Overread into Lead-In and Lead-Out          : No
Fill up missing offset samples with silence : Yes
Delete leading and trailing silent blocks   : No
Null samples used in CRC calculations       : Yes
Used interface                              : Native Win32 interface for Win NT & 2000

Used output format : Internal WAV Routines
Sample format      : 44.100 Hz; 16 Bit; Stereo


TOC of the extracted CD

     Track |   Start  |  Length  | Start sector | End sector
    ---------------------------------------------------------
        1  |  0:00.00 |  4:55.38 |         0    |    22162   
        2  |  4:55.38 |  3:47.11 |     22163    |    39198   
        3  |  8:42.49 |  7:25.45 |     39199    |    72618   
        4  | 16:08.19 |  4:39.68 |     72619    |    93611   
        5  | 20:48.12 |  6:01.48 |     93612    |   120734   
        6  | 26:49.60 |  4:17.46 |    120735    |   140055   
        7  | 31:07.31 |  4:02.56 |    140056    |   158261   
        8  | 35:10.12 |  3:11.36 |    158262    |   172622   
        9  | 38:21.48 |  3:33.58 |    172623    |   188655   
       10  | 41:55.31 |  6:01.65 |    188656    |   215795   


Range status and errors

Selected range

     Filename E:\民乐\國韻風華 春秋戰國 電影音樂專輯 二胡\國韻風華 - 春秋戰國 (電影音樂專輯 二胡).wav

     Peak level 100.0 %
     Extraction speed 2.4 X
     Range quality 100.0 %
     Test CRC 8BF2B642
     Copy CRC 8BF2B642
     Copy OK

No errors occurred


AccurateRip summary

Track  1  cannot be verified as accurate (confidence 1)  [7DF78BCB], AccurateRip returned [281C22CE]  (AR v2)
Track  2  cannot be verified as accurate (confidence 1)  [458C05A8], AccurateRip returned [0D7F9F05]  (AR v2)
Track  3  cannot be verified as accurate (confidence 1)  [4EDCC6C2], AccurateRip returned [C46A3C7F]  (AR v2)
Track  4  cannot be verified as accurate (confidence 1)  [4B5FE183], AccurateRip returned [32030315]  (AR v2)
Track  5  cannot be verified as accurate (confidence 1)  [B910A759], AccurateRip returned [D47E164A]  (AR v2)
Track  6  cannot be verified as accurate (confidence 1)  [330F8CDA], AccurateRip returned [9AABB16C]  (AR v2)
Track  7  cannot be verified as accurate (confidence 1)  [0A6D3946], AccurateRip returned [83499303]  (AR v2)
Track  8  cannot be verified as accurate (confidence 1)  [1E8B87CA], AccurateRip returned [B67B8144]  (AR v2)
Track  9  cannot be verified as accurate (confidence 1)  [2CFDF73F], AccurateRip returned [CD1E0124]  (AR v2)
Track 10  cannot be verified as accurate (confidence 1)  [8D976758], AccurateRip returned [F0885708]  (AR v2)

No tracks could be verified as accurate
You may have a different pressing from the one(s) in the database

End of status report

==== Log checksum 38A868B3DF657E7BEA743752ADF3852FAC7B8F595CF57E631136CFAD0A5AB7EB ====



游客,如果您要查看本帖隐藏内容请回复,如果您想免回复、免金币,直接查看内容,请开通炫音VIP


评分

参与人数 1音符 +15 炫币 +15 收起 理由
barca008 + 15 + 15 赞一个!

查看全部评分

发表于 2017-2-24 21:11:56 | 显示全部楼层
杜总,这里又不是80,不用写自由原创
回复 支持 反对

使用道具 举报

 楼主| 发表于 2017-2-24 21:17:57 | 显示全部楼层
本帖最后由 dwdwweii 于 2017-2-24 21:39 编辑


希望国粹“二胡”协奏曲“春秋战国”能带来愉快,一般的音响重放HQCD,仿佛换了一套系统

HQCD格式噱头也好,毕竟音效确实有所不同,况且真正玩高码音乐玩家,没多少人愿投入大量资金玩蓝光机,DAC,作为木耳的我,在我的垃圾系统重放下有所不同
回复 支持 反对

使用道具 举报

发表于 2017-2-24 23:42:49 | 显示全部楼层
前排排队下载 支持电影音乐 更支持民乐
感谢
回复 支持 反对

使用道具 举报

发表于 2017-2-25 10:26:52 | 显示全部楼层
耳熟能详的曲目,不过却是中乐器版本,旧瓶新酒,有意思,下了,谢。

afon
回复 支持 反对

使用道具 举报

发表于 2017-2-26 11:10:12 | 显示全部楼层
这个看起来好厉害啊。这名字,霸气。
回复 支持 反对

使用道具 举报

发表于 2017-2-26 21:20:25 | 显示全部楼层
大制作,感谢!
回复 支持 反对

使用道具 举报

发表于 2017-2-27 21:55:35 | 显示全部楼层
感谢楼主分享
回复 支持 反对

使用道具 举报

发表于 2017-2-28 21:51:48 | 显示全部楼层
Thanks............
回复 支持 反对

使用道具 举报

发表于 2017-3-1 14:42:50 | 显示全部楼层
谢谢分享音乐
回复 支持 反对

使用道具 举报

发表于 2017-3-1 21:47:15 | 显示全部楼层
谢谢楼主分享!!
回复 支持 反对

使用道具 举报

发表于 2017-3-2 17:28:00 | 显示全部楼层
[T:13][T:13]
回复 支持 反对

使用道具 举报

发表于 2017-3-3 14:26:25 | 显示全部楼层
谢谢楼主分享!
回复 支持 反对

使用道具 举报

发表于 2017-3-3 20:48:43 | 显示全部楼层
收下来听听是必须要的啊
回复 支持 反对

使用道具 举报

发表于 2017-3-4 00:38:02 | 显示全部楼层
谢谢楼主分享
回复 支持 反对

使用道具 举报

您需要登录后才可以回帖 登录 | 立即注册

本版积分规则

手机版|炫音音乐论坛 ( 皖ICP备13017420号-3 )皖公网安备 34082502000069号

GMT+8, 2018-8-22 07:53 , Processed in 0.050634 second(s), 13 queries , Gzip On, File On.

Powered by Discuz! X3.4

© 2004-2017 炫音音乐论坛

快速回复 返回顶部 返回列表