楼主: kamusyy

[器乐] 太平洋影音 陈蓉晖《如诗如画小提琴.伊甸园》[APE/百度]

  [复制链接]
发表于 2017-8-27 06:36:40 | 显示全部楼层
cue有错,曲目不对
回复 支持 反对

使用道具 举报

发表于 2017-8-28 13:18:20 | 显示全部楼层
演绎讲究音色、乐感和内涵,演奏风格细腻、柔美而又不失大家风范。

评分

参与人数 1音符 -20 炫币 -20 收起 理由
kamusyy -20 -20 复制属恶意灌水!

查看全部评分

回复 支持 反对

使用道具 举报

 楼主| 发表于 2017-8-28 14:40:52 | 显示全部楼层
zhu5111 发表于 2017-8-28 13:18
演绎讲究音色、乐感和内涵,演奏风格细腻、柔美而又不失大家风范。

看来是个恶意灌水的老手了!
回复 支持 反对

使用道具 举报

发表于 2017-8-28 19:04:17 | 显示全部楼层
REM DISCID B50EA50C
REM COMMENT "ExactAudioCopy v0.99pb4"
PERFORMER ""
TITLE "Unknown Title"
FILE "陈蓉晖-[如诗如画小提琴.伊甸园].专辑.(APE).ape" WAVE
TRACK 01 AUDIO
TITLE "我的祖国"
PERFORMER ""
FLAGS DCP
INDEX 00 00:00:00
INDEX 01 00:00:01
TRACK 02 AUDIO
TITLE "伊甸园(一)"
PERFORMER ""
FLAGS DCP
INDEX 00 05:04:24
INDEX 01 05:04:44
TRACK 03 AUDIO
TITLE "在那遥远的地方"
PERFORMER ""
FLAGS DCP
INDEX 00 10:21:62
INDEX 01 10:22:15
TRACK 04 AUDIO
TITLE "梦草原"
PERFORMER ""
FLAGS DCP
INDEX 01 14:35:45
TRACK 05 AUDIO
TITLE " 星空童谣"
PERFORMER ""
FLAGS DCP
INDEX 00 20:32:52
INDEX 01 20:33:28
TRACK 06 AUDIO
TITLE "天边的骆驼"
PERFORMER ""
FLAGS DCP
INDEX 00 25:57:41
INDEX 01 25:57:73
TRACK 07 AUDIO
TITLE "遥远的小渔村"
PERFORMER ""
FLAGS DCP
INDEX 00 31:22:09
INDEX 01 31:22:41
TRACK 08 AUDIO
TITLE "伊甸园(二)"
PERFORMER ""
FLAGS DCP
INDEX 00 37:14:28
INDEX 01 37:15:01
TRACK 09 AUDIO
TITLE "青藏高原"
PERFORMER ""
FLAGS DCP
INDEX 00 42:33:69
INDEX 01 42:34:23
TRACK 10 AUDIO
TITLE "小河淌水"
PERFORMER ""
FLAGS DCP
INDEX 00 47:23:60
INDEX 01 47:23:71
TRACK 11 AUDIO
TITLE "真的好想你"
PERFORMER ""
FLAGS DCP
INDEX 00 52:47:68
INDEX 01 52:48:25
TRACK 12 AUDIO
TITLE "天使"
PERFORMER ""
FLAGS DCP
INDEX 00 58:05:39
INDEX 01 58:05:67
回复 支持 反对

使用道具 举报

发表于 2017-8-28 20:00:04 | 显示全部楼层
这个不错,下来听听,谢谢楼主分享
回复 支持 反对

使用道具 举报

发表于 2017-8-28 20:08:29 | 显示全部楼层
冤呀,我是发现CUE文件有错进行修复了。
将上述内容拷贝到文本文件,再将.TXT,改为.CUE,就纠正了错误
回复 支持 反对

使用道具 举报

 楼主| 发表于 2017-8-28 20:12:37 | 显示全部楼层
laoping 发表于 2017-8-28 20:08
冤呀,我是发现CUE文件有错进行修复了。
将上述内容拷贝到文本文件,再将.TXT,改为.CUE,就纠正了错误

哪也应该加以说明啊,再说在第四页,谁能看见呢?你提醒一下即可,下次请注意了。
回复 支持 反对

使用道具 举报

 楼主| 发表于 2017-8-28 20:16:04 | 显示全部楼层
laoping 发表于 2017-8-28 20:08
冤呀,我是发现CUE文件有错进行修复了。
将上述内容拷贝到文本文件,再将.TXT,改为.CUE,就纠正了错误

原先的CUE文件,我播放一点问题没有,很正常啊,每首曲子的时间,就是通过2000正常播放才写出来的。
回复 支持 反对

使用道具 举报

发表于 2017-8-28 21:56:19 | 显示全部楼层
kamusyy 发表于 2017-8-28 20:16
原先的CUE文件,我播放一点问题没有,很正常啊,每首曲子的时间,就是通过2000正常播放才写出来的。

你好!纠正的是曲目顺序错误,我以后注意就是了。

评分

参与人数 1音符 +5 炫币 +5 收起 理由
kamusyy + 5 + 5

查看全部评分

回复 支持 反对

使用道具 举报

发表于 2017-8-29 16:34:12 | 显示全部楼层
收藏了!谢谢楼主分享!
回复 支持 反对

使用道具 举报

发表于 2017-8-29 17:07:48 | 显示全部楼层
美丽的小提琴,谢谢。
回复 支持 反对

使用道具 举报

 楼主| 发表于 2017-8-29 17:20:59 | 显示全部楼层
laoping 发表于 2017-8-28 21:56
你好!纠正的是曲目顺序错误,我以后注意就是了。

欢迎对资源文件的修正,假如以后CUE文件碰到问题,我会来向你请教的。谢谢!
回复 支持 反对

使用道具 举报

发表于 2017-9-4 14:09:52 | 显示全部楼层
美妙音乐,美好享受,谢谢分享
回复 支持 反对

使用道具 举报

发表于 2017-9-6 10:34:39 | 显示全部楼层
这集很好听,诗情画意,优美动听,感谢楼主!
回复 支持 反对

使用道具 举报

发表于 2017-9-8 10:12:18 | 显示全部楼层
又是一张可以收藏的好碟。
回复 支持 反对

使用道具 举报

您需要登录后才可以回帖 登录 | 立即注册

本版积分规则

手机版|炫音音乐论坛 ( 皖ICP备13017420号-3 )皖公网安备 34082502000069号

GMT+8, 2018-9-25 06:50 , Processed in 0.054598 second(s), 12 queries , Gzip On, File On.

Powered by Discuz! X3.4

© 2004-2017 炫音音乐论坛

快速回复 返回顶部 返回列表