查看: 4460|回复: 240

[流行音乐] [巴哥原抓] 感官震撼的提琴双杰 《2Cellos - Score 电影巡礼》 [WAV/百度云]

  [复制链接]
发表于 2017-9-25 12:33:46 | 显示全部楼层 |阅读模式
本帖最后由 barca008 于 2017-10-16 20:50 编辑

Front.jpg

Artist: 2Cellos
Title: Score
Style: Classical
Label: Sony Masterworks
Barcode: 889853491223
Release Date: 2017-03-17
Release Country: US
Catalog Number: 88985349122
Duration: 01:01:08
Source: CDDA
Grabber: EAC Secure Mode
Format: WAV Lossless
SID-Code CD-Master: IFPI-L328
SID-Code Presswerk: IFPI-50BA
Encoder: barca008


★跨界音乐领域最具感官震撼的提琴双杰。
★全新大碟挑选「冰与火之歌:权力游戏」、「魔戒首部曲:魔戒现身」、「新天堂乐园」、「铁达尼号」、「神鬼战士」等14首轰动全球的电影和电视影集主题曲予以翻奏。
★大师Nick Patrick(Jackie Evancho、Il Divo、Plácido Domingo)制作,伦敦交响乐团伴奏,备受尊崇的Robin Smith(Andrea Bocelli、Luciano Pavarotti、Mike Oldfield)担任指挥。

拍照时,如同剪辑时尚杂志的型男模特儿;演奏时,全神贯注又可奔放狂野的释放率性真情,「提琴双杰2CELLOS」的一体双面向,给予全然的感官刺激,跨界的精湛演出,颠覆你的想象空间,无不令人拍案叫绝!2CELLOS跨界魅力就连巨星艾尔顿‧强(Elton John)都是粉丝,邀请担任巡演嘉宾,吸引了新世代年轻族群的目光;于高收视率影集「欢乐合唱团Glee」客串演出,和主角们共同诠释流行天王麦可‧杰克森(Michael Jackson)的〈Smooth Criminal〉新版本,首度打入告示牌数字榜前十名之林!

来自斯洛维尼亚,毕业于伦敦皇家音乐学院的苏利克(Luka Sulic),曾获得赫赫有名的鲁托斯拉夫斯基国际大赛等首奖;出生克罗埃西亚的豪瑟(Stjepan Hauser),毕业于曼彻斯特皇家北方音乐学院,同样是许多大提琴比赛的常胜军。不当乖乖牌的高材生,合拍麦可杰克森名曲〈Smooth Criminal〉MV并于网络平台迅速崛起,发挥绝对创意的新手法,陆续送出《顶尖对决2Cellos》、《二度交锋In2ition》、《浩瀚无限Celloverse》等三张专辑,全数攻入美国古典榜前四强,赢走日本金唱片大赏的荣耀!

全新大碟《SCORE》挑选14首轰动全球的电影和电视影集主题曲予以翻奏,全权交付跨界大师Nick Patrick(Jackie Evancho、Il Divo、Plácido Domingo)制作,邀请历史悠久的伦敦交响乐团(London Symphony Orchestra)伴奏,以及备受尊崇的Robin Smith(Andrea Bocelli、Luciano Pavarotti、Mike Oldfield)担任指挥,联合构筑强大的幕后阵营!包括:伊朗裔德国籍拉敏‧贾瓦帝(Ramin Djawadi)的「冰与火之歌:权力游戏」、新世纪天后恩雅(Enya)撰写「魔戒首部曲:魔戒现身」、颜尼欧‧莫利克奈(Ennio Morricone)的「新天堂乐园」、亨利‧曼西尼(Henry Mancini)的「第凡内早餐」、詹姆斯‧霍纳(James Horner)的「铁达尼号」、约翰‧威廉士(John Williams)的「辛德勒的名单」、范吉利斯(Vangelis)的「火战车」、汉斯‧季默(Hans Zimmer)的「神鬼战士」等配乐大师最具影响力金曲,2CELLOS回归古典本质,捕捉那些荡气回肠的经典画面!


曲目列表:
1. MEDLEY from GAME OF THRONES
惊人累积多达38座艾美奖肯定的高收视率影集「冰与火之歌:权力游戏」组曲

2. MAY IT BE from THE LORD OF THE RINGS: THE FELLOWSHIP OF THE RING
奥斯卡11项大奖荣耀的「魔戒首部曲:魔戒现身」主题曲

3. FOR THE LOVE OF A PRINCESS from BRAVEHEART
囊括奥斯卡5项奖座肯定的「梅尔吉勃逊之英雄本色」主题曲

4. LOVE STORY from LOVE STORY
美国电影协会百大爱情片第9名的破亿票房「爱的故事」主题曲

5. CINEMA PARADISO from CINEMA PARADISO
帝国杂志票选「世界百大电影」的意大利经典「新天堂乐园」主题曲

6. MOON RIVER from BREAKFAST AT TIFFANY’S
美国电影协会百大爱情片、选入美国国家影片登记部典藏「第凡内早餐」主题曲

7. LOVE THEME from THE GODFATHER
掀起黑帮电影新潮流,奥斯卡3大奖加冕之「教父」主题曲

8. MY HEART WILL GO ON from TITANIC
首部破10亿美金票房的电影,抱回11座奥斯卡的「铁达尼号」主题曲

9. THEME from RAIN MAN
柏林影展金熊奖、奥斯卡4项大奖喝采的「雨人」主题曲

10. CAVATINA from THE DEER HUNTER
美国电影学会百大电影、奥斯卡5项大奖肯定的「越战猎鹿人」主题曲

11. MALèNA from MALèNA
意大利电影金像奖加冕的浪漫之作「西西里的美丽传说」主题曲

12. MAIN THEME from SCHINDLER’S LIST
美国奥斯卡+英国电影电视艺术学院各获7项奖荣耀「辛德勒的名单」主题曲

13. TITLES from CHARIOTS OF FIRE
美国奥斯卡+英国电影电视艺术学院+法国坎城影展全到手的「火战车」主题曲

14. NOW WE ARE FREE from GLADIATOR
累积奥斯卡5项大奖,冲破4亿美金票房的「神鬼战士」主题曲



下载地址:


游客,如果您要查看本帖隐藏内容请回复,如果您想免回复、免金币,直接查看内容,请开通炫音VIP



 楼主| 发表于 2017-9-25 12:35:09 | 显示全部楼层
Front.jpg

CD.jpg

Booklet_01.jpg

Booklet_02.jpg

Booklet_03.jpg

Booklet_04.jpg

Booklet_05.jpg

Back.jpg


Exact Audio Copy V1.0 beta 4 from 7. December 2014

EAC extraction logfile from 26. May 2017, 21:24

2Cellos / Score

Used drive  : ASUS    SDR-08B1-U   A   Adapter: 1  ID: 0

Read mode               : Secure
Utilize accurate stream : Yes
Defeat audio cache      : Yes
Make use of C2 pointers : No

Read offset correction                      : 6
Overread into Lead-In and Lead-Out          : No
Fill up missing offset samples with silence : Yes
Delete leading and trailing silent blocks   : No
Null samples used in CRC calculations       : Yes
Used interface                              : Native Win32 interface for Win NT & 2000

Used output format : Internal WAV Routines
Sample format      : 44.100 Hz; 16 Bit; Stereo


TOC of the extracted CD

     Track |   Start  |  Length  | Start sector | End sector
    ---------------------------------------------------------
        1  |  0:00.00 |  5:04.17 |         0    |    22816   
        2  |  5:04.17 |  3:55.59 |     22817    |    40500   
        3  |  9:00.01 |  5:11.28 |     40501    |    63853   
        4  | 14:11.29 |  3:24.01 |     63854    |    79154   
        5  | 17:35.30 |  3:59.28 |     79155    |    97107   
        6  | 21:34.58 |  3:12.63 |     97108    |   111570   
        7  | 24:47.46 |  3:54.04 |    111571    |   129124   
        8  | 28:41.50 |  5:43.58 |    129125    |   154907   
        9  | 34:25.33 |  4:41.26 |    154908    |   176008   
       10  | 39:06.59 |  3:43.16 |    176009    |   192749   
       11  | 42:50.00 |  4:10.08 |    192750    |   211507   
       12  | 47:00.08 |  4:21.53 |    211508    |   231135   
       13  | 51:21.61 |  3:40.11 |    231136    |   247646   
       14  | 55:01.72 |  6:05.37 |    247647    |   275058   


Range status and errors

Selected range

     Filename E:\barca008\2Cellos - Score\2Cellos - Score.wav

     Peak level 100.0 %
     Extraction speed 5.0 X
     Range quality 100.0 %
     Test CRC 389F6096
     Copy CRC 389F6096
     Copy OK

No errors occurred


AccurateRip summary

Track  1  accurately ripped (confidence 1)  [7D495EE1]  (AR v2)
Track  2  accurately ripped (confidence 1)  [9D0B84F1]  (AR v2)
Track  3  accurately ripped (confidence 1)  [B8A6BCD5]  (AR v2)
Track  4  accurately ripped (confidence 1)  [83CCE677]  (AR v2)
Track  5  accurately ripped (confidence 1)  [2443DD8D]  (AR v2)
Track  6  accurately ripped (confidence 1)  [BF2A8E9B]  (AR v2)
Track  7  accurately ripped (confidence 1)  [E821C501]  (AR v2)
Track  8  accurately ripped (confidence 1)  [C6B6BC45]  (AR v2)
Track  9  accurately ripped (confidence 1)  [CB25C74F]  (AR v2)
Track 10  accurately ripped (confidence 1)  [57D3FA18]  (AR v2)
Track 11  accurately ripped (confidence 1)  [6B1FA749]  (AR v2)
Track 12  accurately ripped (confidence 1)  [D09F25E1]  (AR v2)
Track 13  accurately ripped (confidence 1)  [14928EE0]  (AR v2)
Track 14  accurately ripped (confidence 1)  [3781840C]  (AR v2)

All tracks accurately ripped

End of status report

---- CUETools DB Plugin V2.1.4

[CTDB TOCID: IROXgYqBn5J0G_nsLFKQSADAEj8-] found
Submit result: IROXgYqBn5J0G_nsLFKQSADAEj8- has been confirmed
Track | CTDB Status
  1   | (59/59) Accurately ripped
  2   | (59/59) Accurately ripped
  3   | (58/59) Accurately ripped
  4   | (59/59) Accurately ripped
  5   | (59/59) Accurately ripped
  6   | (59/59) Accurately ripped
  7   | (59/59) Accurately ripped
  8   | (59/59) Accurately ripped
  9   | (59/59) Accurately ripped
10   | (59/59) Accurately ripped
11   | (59/59) Accurately ripped
12   | (59/59) Accurately ripped
13   | (59/59) Accurately ripped
14   | (59/59) Accurately ripped


==== Log checksum 165E4E8569DB51B944717B19F4B9322D783B9DC79F9B5D2963974EA2A1D31C9F ====

回复 支持 反对

使用道具 举报

发表于 2017-9-25 13:01:18 | 显示全部楼层
5. CINEMA PARADISO from CINEMA PARADISO
帝国杂志票选「世界百大电影」的意大利经典「新天堂乐园」主题曲




望你提取。

我会自删
回复 支持 反对

使用道具 举报

 楼主| 发表于 2017-9-25 13:05:39 | 显示全部楼层
樱樱 发表于 2017-9-25 13:01
5. CINEMA PARADISO from CINEMA PARADISO
帝国杂志票选「世界百大电影」的意大利经典「新天堂乐园」主题 ...

谢谢,试听非必要条件。
回复 支持 反对

使用道具 举报

发表于 2017-9-25 23:07:13 | 显示全部楼层
感谢楼主慷慨分享~
回复 支持 反对

使用道具 举报

发表于 2017-9-27 15:34:42 | 显示全部楼层
barca008 发表于 2017-9-25 12:35
Exact Audio Copy V1.0 beta 4 from 7. December 2014

EAC extracti ...

听醉了 谢谢 谢谢
回复 支持 反对

使用道具 举报

发表于 2017-9-27 15:51:27 | 显示全部楼层
谢谢楼主分享
回复 支持 反对

使用道具 举报

 楼主| 发表于 2017-9-27 16:04:03 | 显示全部楼层

我接受以金币方式的感谢[w:137]
回复 支持 反对

使用道具 举报

发表于 2017-9-27 19:34:12 | 显示全部楼层
巴哥这个抓的好,声音真柔啊,荡气回肠
回复 支持 反对

使用道具 举报

发表于 2017-9-27 19:52:42 | 显示全部楼层
新的版面,新的专辑.谢谢楼主!
回复 支持 反对

使用道具 举报

发表于 2017-9-28 09:15:42 | 显示全部楼层
看介绍不错,下来听听,谢谢
回复 支持 反对

使用道具 举报

发表于 2017-9-28 10:33:12 | 显示全部楼层
谢谢楼主分享
回复 支持 反对

使用道具 举报

发表于 2017-9-28 11:31:27 | 显示全部楼层
谢谢分享了,辛苦了
回复 支持 反对

使用道具 举报

发表于 2017-9-28 11:57:44 | 显示全部楼层
都是经典电影名曲,极致的演绎效果,谢谢分享
回复 支持 反对

使用道具 举报

您需要登录后才可以回帖 登录 | 立即注册

本版积分规则

手机版|炫音音乐论坛 ( 皖ICP备13017420号-3 )皖公网安备 34082502000069号

GMT+8, 2018-9-18 23:47 , Processed in 0.124882 second(s), 14 queries , Gzip On, File On.

Powered by Discuz! X3.4

© 2004-2017 炫音音乐论坛

快速回复 返回顶部 返回列表