查看: 2912|回复: 121

[古典音乐] 【原创】著名的四大巨头《贝多芬三重协奏曲与勃拉姆斯双重协奏曲》【WAV整轨百度】

  [复制链接]
发表于 2017-9-26 06:06:41 | 显示全部楼层 |阅读模式
本帖最后由 dwdwweii 于 2017-9-30 03:18 编辑


Front.jpg Booklet (5).jpg Booklet (6).jpg Booklet (1).jpg Booklet (2).jpg Booklet (4).jpg CD.jpg CD.jpg

专辑名称:著名的四大巨头《贝多芬三重协奏曲 勃拉姆斯双重协奏曲》
发行公司:EMI
唱片编号:7243 5 66219 2 3
演    奏:Oistrkh,Rostrtopvich,Richter
指    挥:赫伯特·冯·卡拉扬、乔治·塞尔 柏林爱乐乐团、克里夫兰管弦乐团
演    奏 :小提琴:大卫·奥伊斯特拉赫/大提琴:M·罗斯特罗波维奇的/钢琴:斯维亚托斯拉夫·里赫特
发行时间:1993
资源格式: WAV整轨/全扫描
资源出处:Dwdwweii
专辑简介:

这张唱片就是著名的四大巨头

《三重协奏曲》是贝多芬就煞费苦心的作品。这部乐曲在演奏中有一个独特的地方就是台上可以有四位中心人物指挥、钢琴、小提琴、大提琴。而这部作品最著名的一次录音卡拉扬找来里赫特、大卫·奥伊斯特拉赫和罗斯特罗波维奇的演奏,这四位都是NO.1!如此超级豪华的阵容堪称世纪绝响!这张唱片的演奏表情丰富而又真挚,而录音场面宏大而热烈,是贝多芬《三重协奏曲》的不二之选。

而塞尔、奥伊斯特拉赫、罗斯特罗波维奇共同合作勃拉姆斯双重协奏曲也堪称是梦幻组合。奥伊斯特拉赫温柔,优美的小提琴加上罗斯特罗波维奇的白热化,大幅度之大提琴使这个版本成为历史性的名演,两位大师的精采合奏将乐曲的细部表现的很透彻,而且洋溢着鲜艳的感觉。那种惊人的凝聚力与解放感,着实出类拔萃。塞尔更不愧为协奏曲指挥大师,他以清晰的笔编刻画出锐利的音乐本质,并赋与坚实的结构。听他们的演奏,就会清楚地感觉出是勃拉姆斯的音乐。

几位大师的演绎是如此完美,使得本张唱片堪称同曲目中永恒的经典,勃拉姆斯作品的诠释也是独具一格,令人耳目一新。——《留声机》

CD: Oistrakh, Rostropovich, Richter, Karajan, Szell - Berlin Philharmonic, Cleveland Orchestra - Beethoven And Brahms Concertos

01. Triple Concerto In C, Op.56 - I. Allegro    [0:17:58.08]
02. Triple Concerto In C, Op.56 - II. Largo    [0:05:36.25]
03. Triple Concerto In C, Op.56 - III. Rondo Alla Polacca    [0:13:04.45]
04. Double Concerto In A Minor Op.102 - I. Allegro    [0:16:50.57]
05. Double Concerto In A Minor Op.102 - II. Andante    [0:07:50.28]
06. Double Concerto In A Minor Op.102 - III. Vivace Non Troppo    [0:08:48.47]



Exact Audio Copy V1.0 beta 3 from 29. August 2011

EAC extraction logfile from 4. October 2016, 1:36

Oistrakh, Rostropovich, Richter, Karajan, Szell - Berlin Philharmonic, Cleveland Orchestra / Beethoven And Brahms Concertos

Used drive  : YAMAHA  CRW-F1E   Adapter: 0  ID: 0

Read mode               : Secure
Utilize accurate stream : Yes
Defeat audio cache      : Yes
Make use of C2 pointers : No

Read offset correction                      : 733
Overread into Lead-In and Lead-Out          : No
Fill up missing offset samples with silence : Yes
Delete leading and trailing silent blocks   : No
Null samples used in CRC calculations       : Yes
Used interface                              : Native Win32 interface for Win NT & 2000

Used output format : Internal WAV Routines
Sample format      : 44.100 Hz; 16 Bit; Stereo


TOC of the extracted CD

     Track |   Start  |  Length  | Start sector | End sector
    ---------------------------------------------------------
        1  |  0:00.32 | 17:58.08 |        32    |    80889   
        2  | 17:58.40 |  5:36.25 |     80890    |   106114   
        3  | 23:34.65 | 13:04.45 |    106115    |   164959   
        4  | 36:39.35 | 16:50.57 |    164960    |   240766   
        5  | 53:30.17 |  7:50.28 |    240767    |   276044   
        6  | 61:20.45 |  8:48.47 |    276045    |   315691   


Range status and errors

Selected range

     Filename C:\Beethoven And Brahms Concertos\Oistrakh, Rostropovich, Richter, Karajan, Szell - Berlin Philharmonic, Cleveland Orchestra - Beethoven And Brahms Concertos.wav

     Peak level 97.7 %
     Extraction speed 2.2 X
     Range quality 100.0 %
     Test CRC DF33B9A6
     Copy CRC DF33B9A6
     Copy OK

No errors occurred


AccurateRip summary

Track  1  accurately ripped (confidence 6)  [C2242824]  (AR v2)
Track  2  accurately ripped (confidence 6)  [34917265]  (AR v2)
Track  3  accurately ripped (confidence 6)  [AE010B05]  (AR v2)
Track  4  accurately ripped (confidence 6)  [3282CFE9]  (AR v2)
Track  5  accurately ripped (confidence 6)  [F87EC422]  (AR v2)
Track  6  accurately ripped (confidence 6)  [E1F97259]  (AR v2)

All tracks accurately ripped

End of status report

---- CUETools DB Plugin V2.1.3

[CTDB TOCID: GmB1YTVtTVOxLs4xTou7zYrKwxs-] found, Submit result: discs with pregaps not supported in this protocol version
[5d349569] (074/143) No match
[274a0fc8] (061/143) Differs in 0 samples @
[abd0546f] (002/143) No match
[4c75c8a5] (001/143) No match
[b391b9ab] (001/143) No match
[8e7106bc] (001/143) No match
[2cec2665] (001/143) No match
[0a3c41e2] (001/143) No match
[53d76850] (001/143) No match
You can use CUETools to repair this rip.


==== Log checksum 90E89ED920B286C8110639697644AEDE145A47AAA1B65A6860C330DC424D33BF ====



游客,如果您要查看本帖隐藏内容请回复,如果您想免回复、免金币,直接查看内容,请开通炫音VIP


 楼主| 发表于 2017-9-28 12:49:10 | 显示全部楼层
偶尔在这里发几帖,出这么多烦心事,真晦气!我的原抓近TB,他处“抢”着下,为什么说“抢”无论版本,还是原抓质量、抓轨设备可称之为“一流”,在他处从不设金币,附加条件,且欢迎转载!即可扬名,又使更多音乐爱好者享受高质量原抓作品,何乐不为?贵站即然设“金币”一项,受某种原因影响,小试牛刀,玩玩,东边不亮西边亮,还怕无人识?是“金子到处发光”。
回复 支持 1 反对 0

使用道具 举报

 楼主| 发表于 2017-9-26 06:10:22 | 显示全部楼层

著名的四大巨头《贝多芬三重协奏曲 勃拉姆斯双重协奏曲》

本帖最后由 dwdwweii 于 2017-9-26 10:57 编辑

专辑试听及【全扫描】:http://pan.baidu.com/s/1mikPFT2


Front.jpg

Booklet (5).jpg

CD.jpg

Booklet (1).jpg

专辑名称:著名的四大巨头《贝多芬三重协奏曲 勃拉姆斯双重协奏曲》
发行公司:EMI
唱片编号:7243 5 66219 2 3
演    奏:Oistrkh,Rostrtopvich,Richter
指    挥:赫伯特·冯·卡拉扬、乔治·塞尔 柏林爱乐乐团、克里夫兰管弦乐团
演    奏 :小提琴:大卫·奥伊斯特拉赫/大提琴:M·罗斯特罗波维奇的/钢琴:斯维亚托斯拉夫·里赫特
发行时间:1993
资源格式: WAV整轨/全扫描
资源出处:Dwdwweii
专辑简介:

这张唱片就是著名的四大巨头

《三重协奏曲》是贝多芬就煞费苦心的作品。这部乐曲在演奏中有一个独特的地方就是台上可以有四位中心人物指挥、钢琴、小提琴、大提琴。而这部作品最著名的一次录音卡拉扬找来里赫特、大卫·奥伊斯特拉赫和罗斯特罗波维奇的演奏,这四位都是NO.1!如此超级豪华的阵容堪称世纪绝响!这张唱片的演奏表情丰富而又真挚,而录音场面宏大而热烈,是贝多芬《三重协奏曲》的不二之选。

而塞尔、奥伊斯特拉赫、罗斯特罗波维奇共同合作勃拉姆斯双重协奏曲也堪称是梦幻组合。奥伊斯特拉赫温柔,优美的小提琴加上罗斯特罗波维奇的白热化,大幅度之大提琴使这个版本成为历史性的名演,两位大师的精采合奏将乐曲的细部表现的很透彻,而且洋溢着鲜艳的感觉。那种惊人的凝聚力与解放感,着实出类拔萃。塞尔更不愧为协奏曲指挥大师,他以清晰的笔编刻画出锐利的音乐本质,并赋与坚实的结构。听他们的演奏,就会清楚地感觉出是勃拉姆斯的音乐。

几位大师的演绎是如此完美,使得本张唱片堪称同曲目中永恒的经典,勃拉姆斯作品的诠释也是独具一格,令人耳目一新。——《留声机》

CD: Oistrakh, Rostropovich, Richter, Karajan, Szell - Berlin Philharmonic, Cleveland Orchestra - Beethoven And Brahms Concertos

01. Triple Concerto In C, Op.56 - I. Allegro    [0:17:58.08]
02. Triple Concerto In C, Op.56 - II. Largo    [0:05:36.25]
03. Triple Concerto In C, Op.56 - III. Rondo Alla Polacca    [0:13:04.45]
04. Double Concerto In A Minor Op.102 - I. Allegro    [0:16:50.57]
05. Double Concerto In A Minor Op.102 - II. Andante    [0:07:50.28]
06. Double Concerto In A Minor Op.102 - III. Vivace Non Troppo    [0:08:48.47]



Exact Audio Copy V1.0 beta 3 from 29. August 2011

EAC extraction logfile from 4. October 2016, 1:36

Oistrakh, Rostropovich, Richter, Karajan, Szell - Berlin Philharmonic, Cleveland Orchestra / Beethoven And Brahms Concertos

Used drive  : YAMAHA  CRW-F1E   Adapter: 0  ID: 0

Read mode               : Secure
Utilize accurate stream : Yes
Defeat audio cache      : Yes
Make use of C2 pointers : No

Read offset correction                      : 733
Overread into Lead-In and Lead-Out          : No
Fill up missing offset samples with silence : Yes
Delete leading and trailing silent blocks   : No
Null samples used in CRC calculations       : Yes
Used interface                              : Native Win32 interface for Win NT & 2000

Used output format : Internal WAV Routines
Sample format      : 44.100 Hz; 16 Bit; Stereo


TOC of the extracted CD

     Track |   Start  |  Length  | Start sector | End sector
    ---------------------------------------------------------
        1  |  0:00.32 | 17:58.08 |        32    |    80889   
        2  | 17:58.40 |  5:36.25 |     80890    |   106114   
        3  | 23:34.65 | 13:04.45 |    106115    |   164959   
        4  | 36:39.35 | 16:50.57 |    164960    |   240766   
        5  | 53:30.17 |  7:50.28 |    240767    |   276044   
        6  | 61:20.45 |  8:48.47 |    276045    |   315691   


Range status and errors

Selected range

     Filename C:\Beethoven And Brahms Concertos\Oistrakh, Rostropovich, Richter, Karajan, Szell - Berlin Philharmonic, Cleveland Orchestra - Beethoven And Brahms Concertos.wav

     Peak level 97.7 %
     Extraction speed 2.2 X
     Range quality 100.0 %
     Test CRC DF33B9A6
     Copy CRC DF33B9A6
     Copy OK

No errors occurred


AccurateRip summary

Track  1  accurately ripped (confidence 6)  [C2242824]  (AR v2)
Track  2  accurately ripped (confidence 6)  [34917265]  (AR v2)
Track  3  accurately ripped (confidence 6)  [AE010B05]  (AR v2)
Track  4  accurately ripped (confidence 6)  [3282CFE9]  (AR v2)
Track  5  accurately ripped (confidence 6)  [F87EC422]  (AR v2)
Track  6  accurately ripped (confidence 6)  [E1F97259]  (AR v2)

All tracks accurately ripped

End of status report

---- CUETools DB Plugin V2.1.3

[CTDB TOCID: GmB1YTVtTVOxLs4xTou7zYrKwxs-] found, Submit result: discs with pregaps not supported in this protocol version
[5d349569] (074/143) No match
[274a0fc8] (061/143) Differs in 0 samples @
[abd0546f] (002/143) No match
[4c75c8a5] (001/143) No match
[b391b9ab] (001/143) No match
[8e7106bc] (001/143) No match
[2cec2665] (001/143) No match
[0a3c41e2] (001/143) No match
[53d76850] (001/143) No match
You can use CUETools to repair this rip.


==== Log checksum 90E89ED920B286C8110639697644AEDE145A47AAA1B65A6860C330DC424D33BF ====



回复 支持 反对

使用道具 举报

发表于 2017-9-26 10:34:45 | 显示全部楼层
杜总,你的四大巨头附件露在外面了,收不到金币了
回复 支持 反对

使用道具 举报

匿名
匿名  发表于 2017-9-26 11:32:08
barca008 发表于 2017-9-26 10:34
杜总,你的四大巨头附件露在外面了,收不到金币了

干脆另开主题帖
回复 支持 反对

使用道具 举报

发表于 2017-9-27 22:12:38 | 显示全部楼层
这招厉害,让真正想花钱听音乐的人进来免费听!让叶公敬而远之!
回复 支持 反对

使用道具 举报

发表于 2017-9-27 22:14:48 | 显示全部楼层
哦,原来露在外面的附件是MP3的试听版
回复 支持 反对

使用道具 举报

发表于 2017-9-30 09:32:31 | 显示全部楼层
感谢分享好音乐,辛苦了
回复 支持 反对

使用道具 举报

发表于 2017-9-30 12:45:19 | 显示全部楼层
谢谢分享精品音乐,双节快乐!
回复 支持 反对

使用道具 举报

发表于 2017-10-1 22:36:06 | 显示全部楼层
喜欢老贝的音乐,谢谢分享!
回复 支持 反对

使用道具 举报

发表于 2017-10-2 20:51:03 | 显示全部楼层
谢谢楼主分享这张精品,很喜欢
回复 支持 反对

使用道具 举报

发表于 2017-10-3 16:32:24 | 显示全部楼层
感谢分享了!
回复 支持 反对

使用道具 举报

发表于 2017-10-6 02:39:02 | 显示全部楼层
算是卡拉扬的一次异想天开吧~~~~~~~~~
回复 支持 反对

使用道具 举报

发表于 2017-10-10 21:11:28 | 显示全部楼层
喜欢这类音乐,谢谢
回复 支持 反对

使用道具 举报

您需要登录后才可以回帖 登录 | 立即注册

本版积分规则

手机版|炫音音乐论坛 ( 皖ICP备13017420号-3 )皖公网安备 34082502000069号

GMT+8, 2019-2-21 20:27 , Processed in 0.086448 second(s), 26 queries , Gzip On.

Powered by Discuz! X3.4

© 2004-2017 炫音音乐论坛

快速回复 返回顶部 返回列表