查看: 2324|回复: 103

[试音天碟] 【原创】胡里奥《痴迷》他是世界第一位获得世界唱片钻石奖的歌手WAV整轨/百度

  [复制链接]
发表于 2017-9-26 09:47:49 | 显示全部楼层 |阅读模式
本帖最后由 dwdwweii 于 2017-10-5 18:37 编辑
售价:30金币



◎ 本原抓作品僅用於試聽,嚴禁用於任何商業用途!
◎ 請於試聽後24小時內刪除,如果喜歡請自覺購買正版光碟!
◎ Dwdwweii發佈的原抓作品,欢迎轉載各大PT及音樂论坛,謝謝
◎ 请在帖子顶部注明出处及作者,并保留后缀。
◎ 本音樂版權歸唱片公司和歌手所有,如侵犯您的權益,請通知我,我將及時刪除。


Cover.jpg

Back.jpg

CD.jpg


专辑中文名: Crazy痴迷/狂爱
语言: 英语,西班牙语
专辑艺人:Julio Iglesias胡里奥
唱片公司:Columbia
发行时间:1994
唱片编号:COL 474738 2
资源格式: WAV整轨/全扫描
资源出处:dwdwweii

声音感动的落泪!

胡里奥,浪漫的化身!

他拥有一系列的纪录:

1.他是当今世界唱片销量的保持者,世界各地总销量超过10亿张!

2.他是世界第一位获得世界唱片钻石奖的歌手

3.他是第一位将西班牙语音乐登上英国音乐榜首的西班牙人

4.他至今获得超过2600张的白金唱片和上千张金唱片!开了几千场演唱会

5.他是世界上歌手中拿到歌曲版权税最高的,高达18%!

6.在80年代开始,他成为西班牙财富最大的移民(在80年代他拥有美国国籍),每年给西班牙带来近千万的外汇收入

7.他的歌曲被人调查,在世界范围内,每隔20秒他的歌就会被播放或被人唱起!

8.他是第一个获得中国音乐家协会金唱片奖的外国人!他在中国大陆开办了5场正式演唱会.

9.他曾经是西甲豪门皇家马德里REAL MADRID的守门员!

10.他是当今欧洲唯一一位连续4次荣赢"欧洲年度最佳歌手"的艺人

11.他是当今许多拉丁当红知名艺人的教父,义父或儿时偶像,包括:Ricky Matin,Alejandro Sanz,Alejandro Fernandez,Luis Miguel等等

12.他拥有两个知名的儿子,都是当红歌星:小儿子Enrique Iglesias,大儿子Julio Iglesias.jr(小胡里奥)

13.有报道批录他至今已与3000个来自70个不同国家的女人上过床

14.他在拉丁国家,美国,加拿大,法国,西班牙的房产10处。

  专辑CRAZY是1994年索尼哥伦比亚公司发行,编号474738 2
  录音还是他一贯的风格,音色异常丰满宽广,第一首就是crazy,器乐声音一出来就让人感觉到温暖厚实的充满空间,他的声音一唱出来,这个时候他的歌词是什么意思已经完全不重要了,声音太有金属感了,通透的同时又浑厚,真弄不懂索尼哥伦比亚的录音师是怎么制作的,他的唱片从来就是特别的有空间感,而且非常明显,很不容易让听觉疲劳,可能这也是它的唱片能达到那么大的销量的秘诀之一吧。间奏的时候,低沉的萨克斯声音还没有出现,气息已经迎面而来,音乐声音在你感受到低音萨克斯的金属簧片的震动之后才缓缓想起,由美国民谣歌手willie nelson创作,但是胡里奥经常能超过原唱。这一首也不例外,给他处理的华丽温馨。流行歌手里面能长时间经得起考验的人很少,他就是一个。说百听不厌,应该不算过分。一般我们听到非英语歌曲,都不是那么容易接受,他是例外。第二首和加丰科尔(寂静之声的二重唱之一,保罗西蒙的搭档),和声多美,不用描述,单单是间奏部的柔和而华贵的小号,浓烈的拉美味道,浪漫中带着慵懒,让你感觉,这种音乐只有那种吃饱了饭没有事干的人才可以创作出来。没有丝毫的紧张匆忙。
    第四首和艺术家 sting 合作,sting的声音本来就足够神秘了,也负有宗教色彩,在欧洲被称为艺术家。
    第五首  翻唱拉丁之王的老牌乐队桑塔纳的名曲,还没有什么人能如此自信的重新演绎santana的歌,因为很容易吃力不讨好,胡里奥却弄得舞蹈性很强,让你坐不住,间奏部的拉美打击乐也是很讨好的亮点。全部旋律乐器停止,完全是打击乐的天下,间奏的吉他倒是不敢修改一个音符,因为那已经成为了经典。很不容易超越。
    第九首  居然和伦敦交响乐团及合唱团合作演唱贝多芬的第九交响曲选段,有点炫耀唱功,但是和前面的浪漫氛围有点不很贴切。过于辉煌了。

专辑曲目
  
01. Crazy - Dave Koz
02. Let It Be Me - Art Garfunkel
03. Mammy Blue
04. Fragile - Sting
05. Guajira/Oye Como Va
06. When You Tell Me That You Love Me - Dolly Parton
07. I Keep Telling Myself
08. Pelo Amor de Uma Mulher (Por el Amor de Una Mujer)
09. Caruso
10. Song of Joy


Exact Audio Copy V1.0 beta 3 from 29. August 2011

EAC extraction logfile from 9. July 2016, 17:33

JULIO IGLESIAS / Crazy

Used drive  : TEAC    CD-W540E   Adapter: 1  ID: 0

Read mode               : Secure
Utilize accurate stream : Yes
Defeat audio cache      : Yes
Make use of C2 pointers : No

Read offset correction                      : 686
Overread into Lead-In and Lead-Out          : No
Fill up missing offset samples with silence : Yes
Delete leading and trailing silent blocks   : No
Null samples used in CRC calculations       : Yes
Used interface                              : Native Win32 interface for Win NT & 2000

Used output format : Internal WAV Routines
Sample format      : 44.100 Hz; 16 Bit; Stereo


TOC of the extracted CD

     Track |   Start  |  Length  | Start sector | End sector
    ---------------------------------------------------------
        1  |  0:00.00 |  3:17.50 |         0    |    14824   
        2  |  3:17.50 |  3:06.37 |     14825    |    28811   
        3  |  6:24.12 |  4:16.28 |     28812    |    48039   
        4  | 10:40.40 |  4:24.10 |     48040    |    67849   
        5  | 15:04.50 |  3:56.10 |     67850    |    85559   
        6  | 19:00.60 |  4:00.52 |     85560    |   103611   
        7  | 23:01.37 |  4:18.30 |    103612    |   122991   
        8  | 27:19.67 |  3:53.35 |    122992    |   140501   
        9  | 31:13.27 |  5:50.03 |    140502    |   166754   
       10  | 37:03.30 |  4:38.72 |    166755    |   187676   


Range status and errors

Selected range

     Filename C:\2016CD\胡里奥·Crazy-Julio Iglesias\JULIO IGLESIAS - Crazy.wav

     Peak level 99.9 %
     Extraction speed 1.2 X
     Range quality 100.0 %
     Test CRC 91CAFEC6
     Copy CRC 91CAFEC6
     Copy OK

No errors occurred


AccurateRip summary

Track  1  accurately ripped (confidence 11)  [B46AB1F4]  (AR v2)
Track  2  accurately ripped (confidence 11)  [86457DDF]  (AR v2)
Track  3  accurately ripped (confidence 11)  [D685C6E2]  (AR v2)
Track  4  accurately ripped (confidence 11)  [85BA0C7B]  (AR v2)
Track  5  accurately ripped (confidence 11)  [F40288D5]  (AR v2)
Track  6  accurately ripped (confidence 11)  [6E969E81]  (AR v2)
Track  7  accurately ripped (confidence 11)  [4B6FE89D]  (AR v2)
Track  8  accurately ripped (confidence 11)  [04E36AFC]  (AR v2)
Track  9  accurately ripped (confidence 11)  [7BA3B70E]  (AR v2)
Track 10  accurately ripped (confidence 11)  [B17E8C76]  (AR v2)

All tracks accurately ripped

End of status report

==== Log checksum CCFD11A83DB914917CCDB43BCEFB437FBFCB541E86294B78AF75345B99F4DCFF ====




游客,如果您要查看本帖隐藏内容请回复,如果您想免回复、免金币,直接查看内容,请开通炫音VIP



游客,如果您要查看本帖隐藏内容请回复,如果您想免回复、免金币,直接查看内容,请开通炫音VIP







发表于 2017-9-26 16:44:15 | 显示全部楼层
09. Caruso



10:Song Of Joy


回复 支持 反对

使用道具 举报

 楼主| 发表于 2017-9-26 16:53:27 | 显示全部楼层
本帖最后由 dwdwweii 于 2017-9-30 03:08 编辑



感谢付费的朋友!
回复 支持 反对

使用道具 举报

 成长值: 7915

发表于 2017-9-28 10:24:22 | 显示全部楼层
购买了,怎么打不开密码文件?
回复 支持 反对

使用道具 举报

已抛锚 成长值: 5235

发表于 2017-9-28 10:49:51 | 显示全部楼层
购买了,压缩文件也有密码文件怎么回事?
回复 支持 反对

使用道具 举报

 成长值: 7915

发表于 2017-9-28 10:56:09 | 显示全部楼层
花了一把金币,怎么回事?压缩文件打不开?
回复 支持 反对

使用道具 举报

发表于 2017-9-28 11:24:09 | 显示全部楼层
谢谢了!这个是经典!
回复 支持 反对

使用道具 举报

 楼主| 发表于 2017-9-28 12:16:53 | 显示全部楼层
wjjbad 发表于 2017-9-28 10:49
购买了,压缩文件也有密码文件怎么回事?

已发压缩文件密码,抱歉,才看见
回复 支持 反对

使用道具 举报

 楼主| 发表于 2017-9-28 12:17:14 | 显示全部楼层
hcf20009793 发表于 2017-9-28 10:56
花了一把金币,怎么回事?压缩文件打不开?

已发压缩文件密码,抱歉,才看见
回复 支持 反对

使用道具 举报

已抛锚 成长值: 5235

发表于 2017-9-28 12:21:26 | 显示全部楼层
dwdwweii 发表于 2017-9-28 12:16
已发压缩文件密码,抱歉,才看见

密码在哪里
回复 支持 反对

使用道具 举报

 楼主| 发表于 2017-9-28 12:24:31 | 显示全部楼层

见消息
回复 支持 反对

使用道具 举报

发表于 2017-9-28 12:38:04 | 显示全部楼层
  非常 感谢 您 的 分享  !!!
回复 支持 反对

使用道具 举报

发表于 2017-9-28 14:45:45 | 显示全部楼层
感谢分享,谢谢
回复 支持 反对

使用道具 举报

发表于 2017-9-28 20:51:49 | 显示全部楼层
谢谢分享 收藏了
回复 支持 反对

使用道具 举报

您需要登录后才可以回帖 登录 | 立即注册

本版积分规则

手机版|炫音音乐论坛 ( 皖ICP备13017420号-3 )皖公网安备 34082502000069号

GMT+8, 2018-10-20 03:37 , Processed in 0.061151 second(s), 12 queries , Gzip On, File On.

Powered by Discuz! X3.4

© 2004-2017 炫音音乐论坛

快速回复 返回顶部 返回列表