查看: 2222|回复: 49

[流行音乐] [巴哥原抓] Ryuichi Sakamoto 坂本龙一 《圣诞快乐 劳伦斯先生》2016版 [WAV/百度云]

[复制链接]
发表于 2017-9-26 21:47:58 | 显示全部楼层 |阅读模式
本帖最后由 barca008 于 2017-10-16 20:51 编辑

巴哥原抓,首发于炫音音乐论坛,转载请标明出处及原抓者,谢谢!



2016年 Milan Records重发版,封面由艺术家Laurent Durieux设计

Front.jpg

CD.jpg

Booklet.jpg

Back.jpg

Merry Christmas, Mr. Lawrence部份歐洲國家名為Furyo,中國大陸譯《圣诞快乐,劳伦斯先生》台灣譯《俘虜》,1983年日本導演大島渚所執導,是他第一部英語發音的電影。根據英國作家勞倫斯凡德普司特(Laurens Van Der Post)的小說改編,描述第二次世界大戰日軍設置於印尼俘虜營管理英軍俘虜,所衍生出日本與西方的信仰及宗教文化衝突問題。主要演員有大衛鮑伊(David Bowie)、坂本龍一、北野武、湯姆康堤(Tom Conti)。
此部電影最廣為人知的即為它的電影配樂,皆由坂本龍一(Ryuichi Sakamoto)所製作,而電影同名主題曲「Merry Christmas, Mr. Lawrence」獲得廣大的迴響跟歡迎,將他帶上了音樂事業的一大高峰,並奠定大師的地位。除了在電影中播放的純音樂版本外,坂本龍一也請JAPAN樂團主唱大衛席維安(David Sylvian)為這首歌加入了歌詞並演唱,增加一個有人聲演唱的版本,曲名為「Forbidden Colours」,同樣收錄在原聲帶中。坂本龍一在專訪曾說過,自己從來沒有深耕演員事業的打算,但能因為這部片,初次和大衛鮑伊合作,並有機會初次配樂,令他感到興奮。當年大島渚本希望大衛鮑伊負責配樂,可被鮑伊婉拒,而讓毛遂自薦的坂本龍一有機會一展長才,也在電影配樂史上留下〈Merry Christmas Mr. Lawrence〉,最扣人心弦之一的鋼琴聲。

原聲帶獲得英國電影金像獎:最佳電影配樂及各影展入圍最佳電影配樂獎。




Artist: Ryuichi Sakamoto
Title: Merry Christmas Mr. Lawrence
Style: Film Score
Label: Milan Records
Barcode: 3299039985526
Release Date: 2016-10-28
Release Country: EU
Catalog Number: 399 855-2
Duration: 00:40:47
Source: CDDA
Grabber: EAC Secure Mode
Format: WAV Lossless
SID-Code CD-Master: IFPI-
SID-Code Presswerk: IFPI-5722
Encoder: barca008


CD: Ryuichi Sakamoto - Merry Christmas Mr. Lawrence

01. Merry Christmas Mr. Lawrence    [0:04:36.60]
02. Batavia    [0:01:18.72]
03. Germination    [0:01:48.97]
04. A Hearty Breakfast    [0:01:23.58]
05. Before The War    [0:02:15.06]
06. The Seed And The Sower    [0:05:02.20]
07. A Brief Encounter    [0:02:22.96]
08. Ride, Ride, Ride (Celliers' Brother's Song)    [0:01:04.77]
09. The Fight    [0:01:35.01]
10. Father Christmas    [0:02:08.98]
11. Dismissed    [0:00:09.93]
12. Assembly    [0:02:17.46]
13. Beyond Reason    [0:02:00.56]
14. Sowing The Seed    [0:01:55.13]
15. 23rd Psalm    [0:01:59.88]
16. Last Regrets    [0:01:46.46]
17. Ride, Ride, Ride (Reprise)    [0:01:06.30]
18. The Seed    [0:01:04.61]
19. Forbidden Colours    [0:04:50.02]
      David Sylvian



游客,如果您要查看本帖隐藏内容请回复,如果您想免回复、免金币,直接查看内容,请开通炫音VIP
 楼主| 发表于 2017-9-26 21:50:38 | 显示全部楼层
本帖最后由 barca008 于 2017-9-26 22:08 编辑

Mr. Lawrence_FT.jpg

Mr. Lawrence_CD.jpg

Mr. Lawrence_BK.jpg


Exact Audio Copy V1.0 beta 4 from 7. December 2014

EAC extraction logfile from 26. September 2017, 21:05

Ryuichi Sakamoto / Merry Christmas Mr. Lawrence

Used drive  : ASUS    SDR-08B1-U   A   Adapter: 1  ID: 0

Read mode               : Secure
Utilize accurate stream : Yes
Defeat audio cache      : Yes
Make use of C2 pointers : No

Read offset correction                      : 6
Overread into Lead-In and Lead-Out          : No
Fill up missing offset samples with silence : Yes
Delete leading and trailing silent blocks   : No
Null samples used in CRC calculations       : Yes
Used interface                              : Native Win32 interface for Win NT & 2000

Used output format : Internal WAV Routines
Sample format      : 44.100 Hz; 16 Bit; Stereo


TOC of the extracted CD

     Track |   Start  |  Length  | Start sector | End sector
    ---------------------------------------------------------
        1  |  0:00.00 |  4:36.45 |         0    |    20744   
        2  |  4:36.45 |  1:18.54 |     20745    |    26648   
        3  |  5:55.24 |  1:48.73 |     26649    |    34821   
        4  |  7:44.22 |  1:23.44 |     34822    |    41090   
        5  |  9:07.66 |  2:15.05 |     41091    |    51220   
        6  | 11:22.71 |  5:02.15 |     51221    |    73885   
        7  | 16:25.11 |  2:22.72 |     73886    |    84607   
        8  | 18:48.08 |  1:04.58 |     84608    |    89465   
        9  | 19:52.66 |  1:35.01 |     89466    |    96591   
       10  | 21:27.67 |  2:08.74 |     96592    |   106265   
       11  | 23:36.66 |  0:09.70 |    106266    |   107010   
       12  | 23:46.61 |  2:17.35 |    107011    |   117320   
       13  | 26:04.21 |  2:00.42 |    117321    |   126362   
       14  | 28:04.63 |  1:55.10 |    126363    |   134997   
       15  | 29:59.73 |  1:59.66 |    134998    |   143988   
       16  | 31:59.64 |  1:46.35 |    143989    |   151973   
       17  | 33:46.24 |  1:06.23 |    151974    |   156946   
       18  | 34:52.47 |  1:04.46 |    156947    |   161792   
       19  | 35:57.18 |  4:50.02 |    161793    |   183544   


Range status and errors

Selected range

     Filename D:\barca008\Ryuichi Sakamoto - Merry Christmas Mr. Lawrence\Ryuichi Sakamoto - Merry Christmas Mr. Lawrence.wav

     Peak level 99.9 %
     Extraction speed 1.7 X
     Range quality 100.0 %
     Test CRC FC7485D0
     Copy CRC FC7485D0
     Copy OK

No errors occurred


AccurateRip summary

Track  1  accurately ripped (confidence 3)  [E6800D4E]  (AR v2)
Track  2  accurately ripped (confidence 3)  [F493130F]  (AR v2)
Track  3  accurately ripped (confidence 3)  [13427422]  (AR v2)
Track  4  accurately ripped (confidence 3)  [FA9AC7DC]  (AR v2)
Track  5  accurately ripped (confidence 3)  [D52528F9]  (AR v2)
Track  6  accurately ripped (confidence 3)  [4C35C968]  (AR v2)
Track  7  accurately ripped (confidence 3)  [7E850498]  (AR v2)
Track  8  accurately ripped (confidence 3)  [89F37095]  (AR v2)
Track  9  accurately ripped (confidence 3)  [7E6A67E5]  (AR v2)
Track 10  accurately ripped (confidence 3)  [9DC0400B]  (AR v2)
Track 11  accurately ripped (confidence 3)  [DC16902F]  (AR v2)
Track 12  accurately ripped (confidence 3)  [D30D9BD8]  (AR v2)
Track 13  accurately ripped (confidence 3)  [5206C2F5]  (AR v2)
Track 14  accurately ripped (confidence 3)  [2EE10F68]  (AR v2)
Track 15  accurately ripped (confidence 3)  [FE4AB72E]  (AR v2)
Track 16  accurately ripped (confidence 3)  [F28B3649]  (AR v2)
Track 17  accurately ripped (confidence 3)  [329370F5]  (AR v2)
Track 18  accurately ripped (confidence 3)  [DFC71F58]  (AR v2)
Track 19  accurately ripped (confidence 3)  [3C061E58]  (AR v2)

All tracks accurately ripped

End of status report

---- CUETools DB Plugin V2.1.4

[CTDB TOCID: cjYAVVbJFk5MmI.cik.Ixtfp2Kc-] found
Submit result: cjYAVVbJFk5MmI.cik.Ixtfp2Kc- has been confirmed
Track | CTDB Status
  1   | (46/46) Accurately ripped
  2   | (46/46) Accurately ripped
  3   | (46/46) Accurately ripped
  4   | (46/46) Accurately ripped
  5   | (46/46) Accurately ripped
  6   | (46/46) Accurately ripped
  7   | (46/46) Accurately ripped
  8   | (46/46) Accurately ripped
  9   | (46/46) Accurately ripped
10   | (46/46) Accurately ripped
11   | (46/46) Accurately ripped
12   | (46/46) Accurately ripped
13   | (46/46) Accurately ripped
14   | (46/46) Accurately ripped
15   | (46/46) Accurately ripped
16   | ( 9/46) Accurately ripped
17   | ( 9/46) Accurately ripped
18   | ( 9/46) Accurately ripped
19   | (46/46) Accurately ripped


==== Log checksum DE0BE4857BC97DE83B3B2416BA6D5733302764DE3CC3248BF23F778A4703D7C3 ====



回复 支持 反对

使用道具 举报

发表于 2017-9-26 22:19:13 | 显示全部楼层
曲目没有变化,不过设计上的确漂亮多了
回复 支持 反对

使用道具 举报

 楼主| 发表于 2017-9-26 22:22:51 | 显示全部楼层
JessieDD 发表于 2017-9-26 22:19
曲目没有变化,不过设计上的确漂亮多了


曲目从来没变化过

封面感觉像N多年前玩的游戏:Delta Force
回复 支持 反对

使用道具 举报

发表于 2017-9-26 22:35:52 | 显示全部楼层
很喜歡重發版的封面! 這部《俘虜》電影原聲帶封面版本好多
回复 支持 反对

使用道具 举报

 楼主| 发表于 2017-9-26 22:39:27 | 显示全部楼层
原抓就要敢晒log,敢晒照[w:138]

点评

严谨的处事作风,值得我等学习  发表于 2017-9-27 05:35
回复 支持 反对

使用道具 举报

 楼主| 发表于 2017-9-26 23:14:41 | 显示全部楼层
corysun 发表于 2017-9-26 22:35
很喜歡重發版的封面! 這部《俘虜》電影原聲帶封面版本好多

老版品相较差,只能听听,不敢露脸。[w:144]

0926_2.jpg
回复 支持 反对

使用道具 举报

发表于 2017-9-27 05:40:23 | 显示全部楼层
本帖最后由 dwdwweii 于 2017-9-27 06:04 编辑

音乐不错,体现了日本人的曲风,在结构上与“悲情城市”相似,获奖大碟“悲情城市”一直以来是发烧友所追棒发烧音效
回复 支持 反对

使用道具 举报

发表于 2017-9-28 10:34:05 | 显示全部楼层
好音乐,谢谢分享!
回复 支持 反对

使用道具 举报

 成长值: 730

发表于 2017-9-30 07:11:39 | 显示全部楼层
这个专辑应该要100金币!
回复 支持 反对

使用道具 举报

 楼主| 发表于 2017-9-30 09:28:51 | 显示全部楼层
子午飞鸿 发表于 2017-9-30 07:11
这个专辑应该要100金币!

30金币你也没买呀
回复 支持 反对

使用道具 举报

发表于 2017-10-6 02:50:27 | 显示全部楼层
这碟以前没见过~~~~~~
回复 支持 反对

使用道具 举报

发表于 2017-10-13 16:32:53 | 显示全部楼层
谢谢版主 ,支持下载了
回复 支持 反对

使用道具 举报

发表于 2017-10-28 17:39:29 | 显示全部楼层
xiexielouzhu
回复 支持 反对

使用道具 举报

发表于 2017-10-30 09:18:57 | 显示全部楼层
很喜欢劳伦斯先生的配乐
回复 支持 反对

使用道具 举报

您需要登录后才可以回帖 登录 | 立即注册

本版积分规则

手机版|炫音音乐论坛 ( 皖ICP备13017420号-3 )皖公网安备 34082502000069号

GMT+8, 2018-12-16 23:34 , Processed in 0.088798 second(s), 26 queries , Gzip On.

Powered by Discuz! X3.4

© 2004-2017 炫音音乐论坛

快速回复 返回顶部 返回列表