查看: 637|回复: 9

[流行音乐] [bhvvvv原抓] 龙千玉《岁月》 [WAV/百度云]

[复制链接]
发表于 2017-9-29 11:09:17 | 显示全部楼层 |阅读模式
cover.jpg

cd.jpg

back.jpg

专辑名称:岁月
专辑艺人:龙千玉
发行公司:豪记唱片 
发行时间:2015年11月24日
专辑语种:台语
资源类型:WAV+CUE

专辑介绍:
龙千玉,台语女歌手,原以本名“江玉琴”主唱国语歌,自从1987年改名“龙千玉”后开始转战台语歌坛,并获得巨大成功,1961年7月30日出生,祖籍台湾基隆。在台湾台语歌坛上获有“闽南语歌后”称号的女歌手,素有“歌坛公务员”之称。其弟是同样为台语歌坛著名歌手兼作曲、作词人江志丰。
龙千玉在台语歌坛唱了多首脍炙人口的好歌,从《不如甭熟识》《输人不输阵》,一直到近年的《男人情女人心》《问花》及《阿郎》,带动了台语歌坛里的男女对唱风潮,证明了她是位实力派的歌手唱将。

专辑曲目:
01.幸福的最后
02.岁月 (民视八点档《嫁妆》片尾曲)
03.美丽的花
04.唱人生
05.好姐妹
06.手中心
07.生命的太阳
08.感谢你
09.人生是一条河
10.日出常在(国)




下载地址:

游客,如果您要查看本帖隐藏内容请回复,如果您想免回复、免金币,直接查看内容,请开通炫音VIP



请点击此处下载

请先注册会员后在进行下载

已注册会员,请先登录后下载

文件名称:龙千玉-岁月.txt 
下载次数:13  文件大小:10 Bytes  售价:30金币 [记录]
下载权限: 不限   VIP会员打折   [购买VIP]   [充值金币]




套图地址:

游客,如果您要查看本帖隐藏内容请回复,如果您想免回复、免金币,直接查看内容,请开通炫音VIP
 楼主| 发表于 2017-9-29 11:09:59 | 显示全部楼层
Exact Audio Copy V0.99 prebeta 5 from 4. May 2009

EAC 抓取日志文件从17. 十二月 2015, 1:16

龙千玉 / 岁月

使用驱动器  :PIONEER DVD-RW  DVR-221L   Adapter: 1  ID: 1

读取模式     : 保护
使用精确流   : 是
废除音频缓冲 : 是
使用 C2 指针 : 否

读取偏移校正                   : 6
读取 Lead-In 和 Lead-Out       : 否
用静音填充抓取中丢失偏移的采样 : 是
去除首尾静音块                 : 否
在 CRC 计算中使用了空样本      : 是
已用接口                       : Win NT 及 2000 本地 Win32 接口

所用输出格式 : 内部 WAV 函数
样本格式     : 44.100 Hz;16 Bit;立体声


被抓轨 CD 的 TOC

     音轨 |   开始   |   长度   | 起始扇区 | 结尾扇区
    --------------------------------------------------
       1  |  0:00.00 |  4:53.40 |       0  |   22014  
       2  |  4:53.40 |  4:37.25 |   22015  |   42814  
       3  |  9:30.65 |  5:01.28 |   42815  |   65417  
       4  | 14:32.18 |  3:31.19 |   65418  |   81261  
       5  | 18:03.37 |  3:48.16 |   81262  |   98377  
       6  | 21:51.53 |  4:36.17 |   98378  |  119094  
       7  | 26:27.70 |  4:20.23 |  119095  |  138617  
       8  | 30:48.18 |  4:06.23 |  138618  |  157090  
       9  | 34:54.41 |  4:41.50 |  157091  |  178215  
      10  | 39:36.16 |  5:13.20 |  178216  |  201710  


范围状态及错误

已选择范围

     文件名 E:\bhvvvv\龙千玉 - 岁月\龙千玉 - 岁月.wav

     峰值电平 100.0 %
     范围质量 100.0 %
     复制 CRC 4FC7F18C
     复制成功

没有错误发生

状态报告结尾
回复 支持 反对

使用道具 举报

发表于 2017-10-7 18:12:20 | 显示全部楼层
听实力歌手唱歌绝对是一种享受
回复 支持 反对

使用道具 举报

头像被屏蔽
发表于 2017-10-10 22:24:31 | 显示全部楼层
提示: 作者被禁止或删除 内容自动屏蔽
回复 支持 反对

使用道具 举报

发表于 2018-7-12 22:46:50 | 显示全部楼层
感谢分享,没听这个歌手的歌
回复 支持 反对

使用道具 举报

发表于 2018-7-14 13:17:21 | 显示全部楼层
新歌超级好听
回复 支持 反对

使用道具 举报

发表于 2018-7-14 13:19:23 | 显示全部楼层
怎么下载不了 密码在哪里?
回复 支持 反对

使用道具 举报

发表于 2018-7-14 16:18:23 | 显示全部楼层
好聽的台灣歌手,感謝分享
回复 支持 反对

使用道具 举报

发表于 2018-7-14 18:52:31 | 显示全部楼层
实力派的歌手唱将。谢谢
回复 支持 反对

使用道具 举报

您需要登录后才可以回帖 登录 | 立即注册

本版积分规则

手机版|炫音音乐论坛 ( 皖ICP备13017420号-3 )皖公网安备 34082502000069号

GMT+8, 2018-9-20 03:25 , Processed in 0.681855 second(s), 15 queries , Gzip On, File On.

Powered by Discuz! X3.4

© 2004-2017 炫音音乐论坛

快速回复 返回顶部 返回列表