查看: 1663|回复: 46

[华语流行] 【原抓】金旋律音像:张学友《拥友》95年引进港压B版[WAV整轨/百度]

[复制链接]
发表于 2017-10-2 12:49:48 | 显示全部楼层 |阅读模式
本帖最后由 psx950515 于 2017-10-3 22:33 编辑

IMG_6322.jpg
IMG_6323.jpg
IMG_6324.jpg
IMG_6326.jpg
专辑名称:拥友
专辑歌手:张学友
专辑语言:国语
录音公司:香港宝丽金唱片有限公司录制
版权提供:宝丽金远东办事处中国业务部提供版权
出版公司:武汉音像出版社出版
发行公司:北京金旋律音像中心发行
发行时间:1995年
内圈码:ISRCCN-F05-95-320-00/A.J6 / B IFPI L026 59829
IFPI码:0904
ISRC CN-F05-95-320-00/A.J6
音乐类型:流行音乐

一手原抓,抓好无更改,3证齐全,除专辑本身信息外无不良信息。压缩包内包含:拍照4原图(封面+CD+内圈码+封尾)+WAV+CUE+LOG+简介,本人抓的分享全部这样,之后的帖不再介绍。初次发帖,烦请版主帮忙审核帖子是否标准,如有不足之处请指正,谢谢!
1.jpg

CD曲目:
01.拥有
02.潮水的诺言
03.一滴泪
04.说了谁懂
05.两难
06.人在雨中
07.爱和承诺(张学友、陈慧娴合唱)
08.情愿
09.这个冬天不太冷
10.别哭泣
11.如果你懂

游客,如果您要查看本帖隐藏内容请回复,如果您想免回复、免金币,直接查看内容,请开通炫音VIP

声明:禁止转帖,转发传播,刻录销售,转卖资源等行为。请下载于24小时后删除,谢谢合作!

点评

很喜欢学友的歌  发表于 2019-2-13 03:29
很好的资源  发表于 2018-9-16 18:59
 楼主| 发表于 2017-10-2 12:50:26 | 显示全部楼层
Exact Audio Copy V1.1 from 23. June 2015

EAC 抓取日志文件从26. 七月 2017, 17:01

张学友 / 《拥有》引进港压B版

使用驱动器  :PIONEER DVD-RW  DVR-219L   Adapter: 1  ID: 1

读取模式      : 可靠Secure
使用精确流     : 是
清空音频缓存    : 是
使用 C2 指示器 : 否

读取偏移校正:               : 6
读取 Lead-In 和 Lead-Out : 否
用静音填充抓取中丢失偏移的采样       : 是
去除首尾静音块               : 否
在CRC 计算中使用了空样本       : 是
已用接口                  : 已安装外部 ASPI 接口

所用输出模式: : 内部 WAV 函数
样本格式    : 44.100 Hz; 16 Bit; 立体声


已抓取 CD 的 TOC

     音轨 |    起始    |    长度    |  起始扇区  |  结束扇区  
    --------------------------------------------
      1 |  0:00.00 |  3:20.37 |      0 |  15036
      2 |  3:20.37 |  5:19.38 |  15037 |  38999
      3 |  8:40.00 |  3:41.12 |  39000 |  55586
      4 | 12:21.12 |  4:07.63 |  55587 |  74174
      5 | 16:29.00 |  4:46.25 |  74175 |  95649
      6 | 21:15.25 |  4:14.25 |  95650 | 114724
      7 | 25:29.50 |  5:28.25 | 114725 | 139349
      8 | 30:58.00 |  5:20.37 | 139350 | 163386
      9 | 36:18.37 |  5:17.00 | 163387 | 187161
     10 | 41:35.37 |  5:07.38 | 187162 | 210224
     11 | 46:43.00 |  4:33.37 | 210225 | 230736


范围状态及错误

已选择范围

     文件名 F:\天籁坊收藏\金旋律唱片:张学友《拥有》引进港压B版\张学友 - 《拥有》引进港压B版.wav

     峰值电平 95.3 %
     抓取速度 1.6 X
     范围质量 100.0 %
     复制 CRC 7EBD7C6A
     复制成功

没有错误发生


AccurateRip 摘要

音轨  1  不能准确地校验 (确认 1)  [F189840E], 返回 AccurateRip [8DC547CB]  (AR v2)
音轨  2  不能准确地校验 (确认 1)  [D9951A4F], 返回 AccurateRip [4D1CA7C5]  (AR v2)
音轨  3  不能准确地校验 (确认 1)  [C967F865], 返回 AccurateRip [3CCD0954]  (AR v2)
音轨  4  不能准确地校验 (确认 1)  [50A0CB2E], 返回 AccurateRip [4ABB2AB5]  (AR v2)
音轨  5  不能准确地校验 (确认 1)  [BC039B25], 返回 AccurateRip [9595FABE]  (AR v2)
音轨  6  不能准确地校验 (确认 1)  [4FDAA0D2], 返回 AccurateRip [C24D6B9F]  (AR v2)
音轨  7  不能准确地校验 (确认 1)  [284B2358], 返回 AccurateRip [73F22DEB]  (AR v2)
音轨  8  不能准确地校验 (确认 1)  [5AA46037], 返回 AccurateRip [7EEFCB8D]  (AR v2)
音轨  9  不能准确地校验 (确认 1)  [E390B6C2], 返回 AccurateRip [40445F46]  (AR v2)
音轨 10  不能准确地校验 (确认 1)  [D1DFA534], 返回 AccurateRip [F7660176]  (AR v2)
音轨 11  不能准确地校验 (确认 1)  [6F526183], 返回 AccurateRip [C55A3004]  (AR v2)

没有音轨被准确核实
你的版本可能与数据库的版本不同

状态报告结尾

---- CUETools DB Plugin V2.1.6

[CTDB TOCID: 9lkJPSt15BSLD1za5tijFQ5Qnng-] found
Submit result: 9lkJPSt15BSLD1za5tijFQ5Qnng- has been confirmed
Track | CTDB Status
  1   | (3/3) Accurately ripped
  2   | (3/3) Accurately ripped
  3   | (3/3) Accurately ripped
  4   | (3/3) Accurately ripped
  5   | (3/3) Accurately ripped
  6   | (3/3) Accurately ripped
  7   | (3/3) Accurately ripped
  8   | (3/3) Accurately ripped
  9   | (3/3) Accurately ripped
10   | (3/3) Accurately ripped
11   | (3/3) Accurately ripped


==== 记录校验日志 60F736F3EAD64908EABAD8BA3E46D7BDD75E47E317C3F30D55A1343D01948E26 ====
回复 支持 反对

使用道具 举报

发表于 2017-10-2 15:06:01 | 显示全部楼层
港压的好东西,谢谢楼主。
回复 支持 反对

使用道具 举报

发表于 2017-10-9 13:55:00 | 显示全部楼层
很喜欢,谢谢楼主
回复 支持 反对

使用道具 举报

发表于 2017-10-10 21:18:26 | 显示全部楼层
感谢楼主分享这个好东西
回复 支持 反对

使用道具 举报

发表于 2017-10-11 23:14:58 | 显示全部楼层
歌神的拥有引进版专辑,继续收齐!!
回复 支持 反对

使用道具 举报

发表于 2017-10-20 22:20:47 | 显示全部楼层
好歌曲,谢谢分享
回复 支持 反对

使用道具 举报

发表于 2017-10-20 23:45:54 | 显示全部楼层
谢谢了周末快乐!!!
回复 支持 反对

使用道具 举报

发表于 2017-10-21 07:53:35 | 显示全部楼层
周末快乐!多谢分享!
回复 支持 反对

使用道具 举报

发表于 2017-10-21 10:38:34 来自手机 | 显示全部楼层
感谢楼主分享这个好东西
回复 支持 反对

使用道具 举报

发表于 2017-10-22 11:28:40 | 显示全部楼层
谢谢楼主的分享~~
回复 支持 反对

使用道具 举报

发表于 2017-10-23 10:47:59 | 显示全部楼层
好听 好听 好听
回复 支持 反对

使用道具 举报

发表于 2017-10-25 20:56:17 | 显示全部楼层
歌神的拥有引进版专辑,继续收齐!!谢谢
回复 支持 反对

使用道具 举报

发表于 2018-3-7 13:21:46 | 显示全部楼层
很喜欢,谢谢楼主
回复 支持 反对

使用道具 举报

您需要登录后才可以回帖 登录 | 立即注册

本版积分规则

手机版|炫音音乐论坛 ( 皖ICP备13017420号-3 )皖公网安备 34082502000069号

GMT+8, 2019-2-21 23:51 , Processed in 0.073068 second(s), 24 queries , Gzip On.

Powered by Discuz! X3.4

© 2004-2017 炫音音乐论坛

快速回复 返回顶部 返回列表