查看: 362|回复: 6

[流行音乐] [bhvvvv原抓] 张蓉蓉《走若飞》 [WAV/百度云]

[复制链接]
发表于 2017-10-3 12:51:51 | 显示全部楼层 |阅读模式
本帖最后由 bhvvvv 于 2017-10-3 12:52 编辑

cover.jpg

cd.jpg

back.jpg

专辑名称:走若飞
专辑艺人:张蓉蓉
发行公司:豪记影视唱片有限公司
发行时间:2010年11月05日
专辑语种:台语
资源类型:WAV+CUE

专辑介绍:
首次尝试对唱主打歌,邀请蔡义德跨刀对唱

专辑曲目:
01.总是一场梦
02.走若飞(张蓉蓉/蔡义德)
03.结果
04.风尘路
05.落花泪(张蓉蓉/李明洋)
06.不曾说爱你
07.不能讲的秘密
08.异乡的城市(张蓉蓉/许志豪)
09.用心
10.尚水的伴
11.望乡
12.走若飞(卡拉版)




下载地址:

游客,如果您要查看本帖隐藏内容请回复,如果您想免回复、免金币,直接查看内容,请开通炫音VIP



请点击此处下载

请先注册会员后在进行下载

已注册会员,请先登录后下载

文件名称:张蓉蓉-走若飞.txt 
下载次数:6  文件大小:12 Bytes  售价:30金币 [记录]
下载权限: 不限   VIP会员打折   [购买VIP]   [充值金币]




套图地址:

游客,如果您要查看本帖隐藏内容请回复,如果您想免回复、免金币,直接查看内容,请开通炫音VIP
 楼主| 发表于 2017-10-3 12:52:21 | 显示全部楼层
Exact Audio Copy V0.99 prebeta 5 from 4. May 2009

EAC 抓取日志文件从17. 八月 2016, 15:07

张蓉蓉 / 走若飞

使用驱动器  :PIONEER DVD-RW  DVR-221L   Adapter: 1  ID: 1

读取模式     : 保护
使用精确流   : 是
废除音频缓冲 : 是
使用 C2 指针 : 否

读取偏移校正                   : 6
读取 Lead-In 和 Lead-Out       : 否
用静音填充抓取中丢失偏移的采样 : 是
去除首尾静音块                 : 否
在 CRC 计算中使用了空样本      : 是
已用接口                       : Win NT 及 2000 本地 Win32 接口

所用输出格式 : 内部 WAV 函数
样本格式     : 44.100 Hz;16 Bit;立体声


被抓轨 CD 的 TOC

     音轨 |   开始   |   长度   | 起始扇区 | 结尾扇区
    --------------------------------------------------
       1  |  0:00.00 |  4:35.58 |       0  |   20682  
       2  |  4:35.58 |  5:01.65 |   20683  |   43322  
       3  |  9:37.48 |  4:33.18 |   43323  |   63815  
       4  | 14:10.66 |  5:01.48 |   63816  |   86438  
       5  | 19:12.39 |  4:36.54 |   86439  |  107192  
       6  | 23:49.18 |  5:04.03 |  107193  |  129995  
       7  | 28:53.21 |  4:54.73 |  129996  |  152118  
       8  | 33:48.19 |  3:58.11 |  152119  |  169979  
       9  | 37:46.30 |  4:47.13 |  169980  |  191517  
      10  | 42:33.43 |  4:46.21 |  191518  |  212988  
      11  | 47:19.64 |  5:07.61 |  212989  |  236074  
      12  | 52:27.50 |  5:02.06 |  236075  |  258730  


范围状态及错误

已选择范围

     文件名 E:\bhvvvv\张蓉蓉 - 走若飞\张蓉蓉 - 走若飞.wav

     峰值电平 97.8 %
     范围质量 100.0 %
     复制 CRC B2031E82
     复制成功

没有错误发生


AccurateRip 概要

音轨  1  数据库中未见
音轨  2  数据库中未见
音轨  3  数据库中未见
音轨  4  数据库中未见
音轨  5  数据库中未见
音轨  6  数据库中未见
音轨  7  数据库中未见
音轨  8  数据库中未见
音轨  9  数据库中未见
音轨 10  数据库中未见
音轨 11  数据库中未见
音轨 12  数据库中未见

没有任何音轨出现在 AccurateRip 数据库中

状态报告结尾
回复 支持 反对

使用道具 举报

发表于 2017-10-7 16:01:14 | 显示全部楼层
一定要收藏,谢谢。
回复 支持 反对

使用道具 举报

发表于 2018-7-6 14:12:22 | 显示全部楼层
非常喜欢,谢谢楼主分享
回复 支持 反对

使用道具 举报

发表于 2018-7-12 22:44:25 | 显示全部楼层
没听过这个歌手,感谢分享
回复 支持 反对

使用道具 举报

发表于 2018-9-7 13:13:07 | 显示全部楼层
她的歌很有特色,謝謝!
回复 支持 反对

使用道具 举报

您需要登录后才可以回帖 登录 | 立即注册

本版积分规则

手机版|炫音音乐论坛 ( 皖ICP备13017420号-3 )皖公网安备 34082502000069号

GMT+8, 2018-9-20 03:26 , Processed in 2.163271 second(s), 15 queries , Gzip On, File On.

Powered by Discuz! X3.4

© 2004-2017 炫音音乐论坛

快速回复 返回顶部 返回列表