查看: 732|回复: 17

[流行音乐] [bhvvvv原抓] 林姗《送你送到这》 [WAV/百度云]

[复制链接]
发表于 2017-10-6 10:31:49 | 显示全部楼层 |阅读模式
本帖最后由 bhvvvv 于 2017-10-6 10:34 编辑

cover.jpg

cd.jpg

back.jpg

专辑名称:送你送到这
专辑艺人:林姗
发行公司:豪记影视唱片有限公司
发行时间:2016年12月16日
专辑语种:台语
资源类型:WAV+CUE

专辑介绍:
家住南部的林姗,因为喜欢唱歌,从中学时代就到处参加歌唱比赛,也常常拿到冠军,
1993年录制了许多的口水歌唱片,在中南部已小有名气,林姗与曾心梅、黄思婷算是同时期歌手,然而当曾心梅拿到金曲奖,
林姗出席活动(20张)思婷也录了好几张个人专辑,纷纷在台语歌坛建立知名度的同时,林姗的际遇显得坎坷许多,
只能在翻唱口水专辑,说起来还是因为黄思婷!
  原来林姗和黄思婷出道是同一位歌唱老师,老师先介绍黄思婷给唱片公司,原本他和黄思婷有机会成为同门姐妹,
但当时因黄思婷加盟豪记唱片後唱片大卖!老师认为唱片公司老板诚意不够,一气之下影响到林姗,转签别家唱片公司,
因此没有签给豪记唱片,没想到事隔七、八年林姗还是和豪记唱片合作了
制作人眼中的林姗则是位不可多得的天才型歌手,对歌曲的诠释情感丰富,而对歌唱事业原本放弃,
只想过著平淡生活的她,加入豪记後在公司的栽培下,渐渐展露个人的光芒,
到2005年新发行的专辑「绵绵旧情」更奠定了广大的歌迷基础,再再证明了有实力的人是不会被埋没的。

专辑曲目:
01.命运天安排         
02.送你送到这(翁立友/林姗)         
03.黄昏高雄港         
04.鸳鸯泪         
05.本份         
06.相片         
07.问阮的心         
08.今夜的梦




下载地址:

游客,如果您要查看本帖隐藏内容请回复,如果您想免回复、免金币,直接查看内容,请开通炫音VIP



请点击此处下载

请先注册会员后在进行下载

已注册会员,请先登录后下载

文件名称:林姗-送你送到这.txt 
下载次数:16  文件大小:10 Bytes  售价:30金币 [记录]
下载权限: 不限   VIP会员打折   [购买VIP]   [充值金币]




套图地址:


游客,如果您要查看本帖隐藏内容请回复,如果您想免回复、免金币,直接查看内容,请开通炫音VIP
 楼主| 发表于 2017-10-6 10:37:13 | 显示全部楼层
Exact Audio Copy V0.99 prebeta 5 from 4. May 2009

EAC 抓取日志文件从26. 四月 2017, 2:59

林姗 / 送你送到这

使用驱动器  :PIONEER DVD-RW  DVR-221L   Adapter: 1  ID: 1

读取模式     : 保护
使用精确流   : 是
废除音频缓冲 : 是
使用 C2 指针 : 否

读取偏移校正                   : 0
读取 Lead-In 和 Lead-Out       : 否
用静音填充抓取中丢失偏移的采样 : 是
去除首尾静音块                 : 否
在 CRC 计算中使用了空样本      : 是
已用接口                       : Win NT 及 2000 本地 Win32 接口

所用输出格式 : 内部 WAV 函数
样本格式     : 44.100 Hz;16 Bit;立体声


被抓轨 CD 的 TOC

     音轨 |   开始   |   长度   | 起始扇区 | 结尾扇区
    --------------------------------------------------
       1  |  0:00.00 |  4:13.24 |       0  |   18998  
       2  |  4:13.24 |  4:42.18 |   18999  |   40166  
       3  |  8:55.42 |  4:54.24 |   40167  |   62240  
       4  | 13:49.66 |  4:27.23 |   62241  |   82288  
       5  | 18:17.14 |  3:50.24 |   82289  |   99562  
       6  | 22:07.38 |  4:07.27 |   99563  |  118114  
       7  | 26:14.65 |  3:50.21 |  118115  |  135385  
       8  | 30:05.11 |  4:09.23 |  135386  |  154083  


范围状态及错误

已选择范围

     文件名 E:\bhvvvv\林姗 - 送你送到这\林姗 - 送你送到这.wav

     峰值电平 100.0 %
     范围质量 100.0 %
     复制 CRC CA2BC23E
     复制成功

没有错误发生

状态报告结尾
回复 支持 反对

使用道具 举报

发表于 2017-10-7 15:59:42 | 显示全部楼层
值得一再聆听并收藏。  
回复 支持 反对

使用道具 举报

发表于 2017-10-11 15:14:17 | 显示全部楼层
这是原抓的啊!林姗2016年新专辑要顶!谢谢分享!
回复 支持 反对

使用道具 举报

发表于 2017-11-8 09:04:04 | 显示全部楼层
唱得很忧伤感人。
回复 支持 反对

使用道具 举报

发表于 2017-11-23 01:43:48 | 显示全部楼层
林姍-送你送到這.....................
回复 支持 反对

使用道具 举报

发表于 2017-11-23 23:40:13 | 显示全部楼层
感謝分享.......
??...還提取碼呀?.
回复 支持 反对

使用道具 举报

发表于 2017-12-6 18:09:58 | 显示全部楼层
林姗真的没听过 应该不红
回复 支持 反对

使用道具 举报

发表于 2018-1-11 18:17:21 | 显示全部楼层
谢谢你了闽南语好好听
回复 支持 反对

使用道具 举报

发表于 2018-2-5 17:03:00 | 显示全部楼层
非常感谢楼主分享林姗的《送你送到这》,支持!非常喜欢!
回复 支持 反对

使用道具 举报

发表于 2018-3-16 23:37:50 | 显示全部楼层
这张专辑里就喜欢这首本分,来收藏一下,感谢分享出来
回复 支持 反对

使用道具 举报

发表于 2018-3-17 08:28:36 | 显示全部楼层
感谢分享辛苦了
回复 支持 反对

使用道具 举报

发表于 2018-3-20 18:52:39 | 显示全部楼层
非常好听的歌曲,谢谢分享
回复 支持 反对

使用道具 举报

您需要登录后才可以回帖 登录 | 立即注册

本版积分规则

手机版|炫音音乐论坛 ( 皖ICP备13017420号-3 )皖公网安备 34082502000069号

GMT+8, 2018-9-18 23:20 , Processed in 0.083466 second(s), 14 queries , Gzip On, File On.

Powered by Discuz! X3.4

© 2004-2017 炫音音乐论坛

快速回复 返回顶部 返回列表