查看: 2603|回复: 56

[华语流行] 龚琳娜《孔雀飞来、夜雪、走西口》3CD[APE整轨/百度云]

  [复制链接]
发表于 2017-10-9 16:48:30 | 显示全部楼层 |阅读模式
专辑封面.jpg
专辑封面.jpg
专辑封面.jpg

专辑名称:孔雀飞来
专辑歌手:龚琳娜
发行时间:2002年
专辑发行:广州星文文化传播有限公司
专辑出版:广州音像出版社
专辑ISRC:CN-F28-02-319-00/A.J6

专辑介绍

《孔雀飞来》首张个人演唱专辑,汇集新歌与民歌共十二首。
其中歌曲《孔雀飞来》为该专辑主打歌曲。
《孔雀飞来》荣获中国广播新歌金奖、全国十大金曲、民歌排行榜 第一名。
龚琳娜演唱的《孔雀飞来》,最近刚刚荣获“2001年度‘广播新歌’政府奖”一等奖。
《孔雀飞来》是由南京人民广播电台音乐台选送参加
“2001年度中国‘广播新歌’评选”的歌曲,
词曲作者黄荟和编曲鄂茅在歌曲的创作上将傣族风情和现代音乐创作技法融入其中,
加上青年歌唱演员龚琳娜深情委婉、
别有风格的演唱使这首歌曲达到了很好的艺术效果。
龚琳娜1975年出生于贵州省贵阳市,她5岁登台演唱,
7岁开始在国内巡回演出,12岁出访法国,
她所演唱的苗族飞歌、侗族大歌,深受听众观众喜爱。
16岁那年,龚琳娜抱着学习、发展民族音乐的理想
考入了中国音乐学院附中并师从邹文琴教授学习民族声乐,
1999年她以文化部“民歌状元”称号从中国音乐学院毕业。
现在龚琳娜已成为中央民族乐团的独唱演员,
她热情奔放的性格赋予她的歌声更多的感染力。
12月27日,龚琳娜将把荣获 “2001年度‘广播新歌’政府奖”
一等奖的歌曲《孔雀飞来》带到在南京举办的“广播新歌”颁奖晚会现场,
相信龚琳娜这只美丽的金孔雀会带给全国听众更多美好的音乐感受。

专辑曲目

01.孔雀飞来
02.妈妈留给我一首歌
03.文殊菩萨
04.牵挂
05.问问自己的心
06.斑竹泪
07.咕噜山歌
08.好花红
09.打双麻窝子
10.美丽的家乡
11.采花
12.迎春歌

专辑名称:夜雪
歌    手:龚琳娜
发行时间:2010-03-06

专辑介绍:

    夜雪《夜雪》是中国歌唱家龚琳娜的个人音乐专辑,2010年中国唱片深圳公司出版。
    该专辑收录了同名歌曲《夜雪》,这首歌以唐代大诗人白居易的诗《夜雪》为唱词。

主创人员
  琴 :老锣
  笙 :聂云雷
  人声:龚琳娜
  笛子:王华
  扬琴:熊俊杰
  小提琴:Olga Lakkoni、Petra Wolff
  中提琴:Nancy Sullivan
  大提琴:Mathis Mayr

专辑曲目:

01 草 (CGrasses)
02 白云泉 (Spring of White Clouds)
03 夜雪 ( Night Snows)
04 花非花 (Flowers yet not Flowers)
05 一钵沙蒿 (A Pot of Wormwood)
06 忐忑 (Perturbed)
07 庭院深深 ( In the Depths of the Palace)
08 悲情欲望 (Grief-stricken Desires)
09 阳光少女 (A Young Girl in Sunlight)
10 静夜思 (Thoughts on a Still Night)
11 将近酒 ( Come, Let’s Drink)
12 希望 (Hope)
13 琉璃光 (Gleaming Bright )

专辑名称: 走西口 中国民歌
专辑演唱: 龚琳娜
音乐类型: 民乐
发行时间: 2010年
地    区: 大陆
语    言: 普通话
出版发行: 中国唱片总公司
版权提供: CRC
专辑ISRC: 9787799918464

专辑介绍:

  应众多看过《血色浪漫》的观众之要求,龚琳娜最新录制了民歌唱片《走西口》。龚林娜,1975年出生于贵阳市,五岁开始登台独唱,童年时代的她就曾在全国各地的舞台上演出,获得很多赞誉。
  十七岁考入中国音乐学院附中学习民族声乐,师从邹文琴教授,大学毕业后进入中央民族乐团担任独唱演员,2000年以一曲《斑竹泪》荣获全国青年歌手电视大奖赛专业组民族唱法银奖;2001年代表作《孔雀飞来》获全国民族排行榜之首。2002年,龚林娜开始独自下乡采集民歌、赴欧洲学习世界民族音乐,与德国作曲家老锣合作,演绎中国新艺术歌曲。陆续出版唱片《五行》、《走生命的路》、《静夜思》。2005年辞职,定居德国。

专辑曲目:

01. 桃花红 杏花白——山西民歌
02. 走西口——陕北民歌
03. 五更月——甘肃民歌
04. 茉莉花——江苏民歌
05. 螃蟹歌——贵州儿歌
06. 盘歌——贵州儿歌
07. 细细辣子——贵州儿歌
08. 白鸽赶场——贵州儿歌
09. 杨柳青——山西民歌
10. 丢丢铜——福建民歌
11. 茉莉花——河北民歌
12. 绣荷包——山西民歌      


13. 放风筝——河北民歌
14. 好花红——贵州民歌
15. 小表妹——龚琳娜词 老锣曲
16. 上去高山望平川——甘肃民歌
17. 尕老汉——甘肃民歌
18. 黄河船夫曲——陕北民歌
19. 五哥放羊——陕北民歌
20. 包愣调——山东民歌
21. 凤阳花鼓——安徽民歌
22. 花非花——(唐)白居易诗 老锣曲

链接:http://pan.baidu.com/s/1gfkuCON
购买主题 已有 40 人购买  本主题需向作者支付 5 金币 才能浏览,如果您想免回复、免金币,直接查看内容,请开通炫音VIP
 楼主| 发表于 2017-10-9 16:53:16 | 显示全部楼层
Exact Audio Copy V0.99 prebeta 5 from 4. May 2009

EAC 抓取日志文件从29. 五月 2011, 23:25

龚琳娜 / 孔雀飞来

使用驱动器  :PIONEER DVD-RW  DVR-218L   Adapter: 2  ID: 1

读取模式     : 保护
使用精确流   : 是
废除音频缓冲 : 是
使用 C2 指针 : 否

读取偏移校正                   : 6
读取 Lead-In 和 Lead-Out       : 否
用静音填充抓取中丢失偏移的采样 : 是
去除首尾静音块                 : 否
在 CRC 计算中使用了空样本      : 是
已用接口                       : Win NT 及 2000 本地 Win32 接口

所用输出格式 : 内部 WAV 函数
样本格式     : 44.100 Hz;16 Bit;立体声


被抓轨 CD 的 TOC

     音轨 |   开始   |   长度   | 起始扇区 | 结尾扇区
    --------------------------------------------------
       1  |  0:00.01 |  4:54.34 |       1  |   22084  
       2  |  4:54.35 |  5:30.70 |   22085  |   46904  
       3  | 10:25.30 |  6:23.05 |   46905  |   75634  
       4  | 16:48.35 |  4:11.59 |   75635  |   94518  
       5  | 21:00.19 |  3:39.63 |   94519  |  111006  
       6  | 24:40.07 |  5:17.50 |  111007  |  134831  
       7  | 29:57.57 |  1:36.29 |  134832  |  142060  
       8  | 31:34.11 |  4:29.53 |  142061  |  162288  
       9  | 36:03.64 |  2:29.08 |  162289  |  173471  
      10  | 38:32.72 |  3:54.13 |  173472  |  191034  
      11  | 42:27.10 |  1:51.58 |  191035  |  199417  
      12  | 44:18.68 |  3:16.29 |  199418  |  214146  


范围状态及错误

已选择范围

     文件名 E:\龚琳娜-孔雀飞来\CDImage.wav

     峰值电平 85.2 %
     范围质量 100.0 %
     复制 CRC 2272B82B
     复制成功

没有错误发生


AccurateRip 概要

音轨  1  数据库中未见
音轨  2  数据库中未见
音轨  3  数据库中未见
音轨  4  数据库中未见
音轨  5  数据库中未见
音轨  6  数据库中未见
音轨  7  数据库中未见
音轨  8  数据库中未见
音轨  9  数据库中未见
音轨 10  数据库中未见
音轨 11  数据库中未见
音轨 12  数据库中未见

没有任何音轨出现在 AccurateRip 数据库中

状态报告结尾
回复 支持 反对

使用道具 举报

发表于 2017-10-10 06:51:29 | 显示全部楼层
在民族音乐区收藏过走西口,音质顶瓜瓜
回复 支持 反对

使用道具 举报

发表于 2017-10-10 08:47:27 | 显示全部楼层
很是精彩 谢谢分享
回复 支持 反对

使用道具 举报

发表于 2017-10-10 11:12:16 | 显示全部楼层
龚琳娜嗓子真好,就是煲开了的hifi喇叭,感谢楼主分享!!!
回复 支持 反对

使用道具 举报

发表于 2017-10-10 20:10:07 | 显示全部楼层
这个压缩文件格式未知或者数据已经被损坏                龚琳娜《夜雪》\龚琳娜《夜雪》.ape                D:\BaiduYunDownload\龚琳娜《夜雪》[APE整轨].rar               
回复 支持 反对

使用道具 举报

 楼主| 发表于 2017-10-10 23:28:52 | 显示全部楼层
木鱼669 发表于 2017-10-10 20:10
这个压缩文件格式未知或者数据已经被损坏                龚琳娜《夜雪》\龚琳娜《夜雪》.ape                D:\BaiduYunDownload\龚琳 ...

我刚刚下载了,解压没问题啊!
回复 支持 反对

使用道具 举报

发表于 2017-10-11 15:20:13 | 显示全部楼层
她 的音乐很有特色
回复 支持 反对

使用道具 举报

发表于 2017-10-18 15:47:22 | 显示全部楼层
民歌很喜欢!
回复 支持 反对

使用道具 举报

发表于 2017-10-19 00:08:03 | 显示全部楼层
她 的音乐很有特色
回复 支持 反对

使用道具 举报

发表于 2017-11-5 13:58:56 | 显示全部楼层
下载了听听!
回复 支持 反对

使用道具 举报

发表于 2017-11-7 12:50:10 | 显示全部楼层
非常感谢分享,终于找到了,谢谢🙏🏻
回复 支持 反对

使用道具 举报

发表于 2017-11-9 11:35:26 | 显示全部楼层
感谢楼主分享,下载收藏了哈
回复 支持 反对

使用道具 举报

发表于 2017-11-12 16:12:17 | 显示全部楼层
今天才听到 龚老师的 小河淌水,特来下载其他的
回复 支持 反对

使用道具 举报

发表于 2017-11-18 05:55:38 | 显示全部楼层
thx for sharing!
回复 支持 反对

使用道具 举报

您需要登录后才可以回帖 登录 | 立即注册

本版积分规则

手机版|炫音音乐论坛 ( 皖ICP备13017420号-3 )皖公网安备 34082502000069号

GMT+8, 2018-12-16 03:24 , Processed in 0.088990 second(s), 31 queries , Gzip On.

Powered by Discuz! X3.4

© 2004-2017 炫音音乐论坛

快速回复 返回顶部 返回列表