楼主: 阿·J

bing crosby songbook [MAV+CUE]

[复制链接]
发表于 2018-7-18 07:18:40 | 显示全部楼层
没有试听吗
回复 支持 反对

使用道具 举报

发表于 2018-7-28 23:04:15 | 显示全部楼层

谢谢分享的音乐
回复 支持 反对

使用道具 举报

发表于 2018-7-30 11:14:12 | 显示全部楼层
非常感谢分享美好音乐!
回复 支持 反对

使用道具 举报

发表于 2018-8-27 15:44:29 | 显示全部楼层
非常喜欢的男声
回复 支持 反对

使用道具 举报

发表于 2018-11-4 15:39:35 | 显示全部楼层
感谢楼主分享罕见的音乐专辑!
回复 支持 反对

使用道具 举报

 楼主| 发表于 2018-11-4 17:14:34 | 显示全部楼层
ASIRN 发表于 2018-11-4 15:39
感谢楼主分享罕见的音乐专辑!

我说哥们,把我的帖子刷了个遍是干嘛呢……
回复 支持 反对

使用道具 举报

发表于 2018-11-4 18:16:07 | 显示全部楼层
本帖最后由 ASIRN 于 2018-11-4 18:55 编辑
阿·J 发表于 2018-11-4 17:14
我说哥们,把我的帖子刷了个遍是干嘛呢……


谢谢您分享的高清版音乐 !
回复 支持 反对

使用道具 举报

发表于 2018-11-7 21:09:27 | 显示全部楼层
REM DISCID B0081C0E
REM COMMENT "ExactAudioCopy v1.3"
PERFORMER "Bing Crosby"
TITLE "Songbook"
FILE "CDImage.flac" WAVE
  TRACK 01 AUDIO
    TITLE "As Time Goes By"
    PERFORMER "Bing Crosby"
    INDEX 01 00:00:00
  TRACK 02 AUDIO
    TITLE "I'll be Seeing You"
    PERFORMER "Bing Crosby"
    INDEX 00 01:50:46
    INDEX 01 01:54:04
  TRACK 03 AUDIO
    TITLE "Don't Get Around Much Anymore"
    PERFORMER "Bing Crosby"
    INDEX 00 05:04:41
    INDEX 01 05:06:61
  TRACK 04 AUDIO
    TITLE "The Nearness of You"
    PERFORMER "Bing Crosby"
    INDEX 00 07:58:56
    INDEX 01 08:00:37
  TRACK 05 AUDIO
    TITLE "Cheek to Cheek"
    PERFORMER "Bing Crosby"
    INDEX 00 10:07:46
    INDEX 01 10:11:07
  TRACK 06 AUDIO
    TITLE "That Old Black Magic"
    PERFORMER "Bing Crosby"
    INDEX 00 12:11:24
    INDEX 01 12:14:41
  TRACK 07 AUDIO
    TITLE "Ain't Misbehavin'"
    PERFORMER "Bing Crosby"
    INDEX 00 14:31:27
    INDEX 01 14:34:55
  TRACK 08 AUDIO
    TITLE "S Wonderful"
    PERFORMER "Bing Crosby"
    INDEX 00 16:47:19
    INDEX 01 16:50:13
  TRACK 09 AUDIO
    TITLE "Beautiful Dreamer"
    PERFORMER "Bing Crosby"
    INDEX 00 18:37:13
    INDEX 01 18:41:06
  TRACK 10 AUDIO
    TITLE "In the Still of the Night / I Could Have Danced All Night"
    PERFORMER "Bing Crosby"
    INDEX 00 21:01:12
    INDEX 01 21:01:68
  TRACK 11 AUDIO
    TITLE "Get Happy"
    PERFORMER "Bing Crosby"
    INDEX 00 24:05:03
    INDEX 01 24:07:10
  TRACK 12 AUDIO
    TITLE "Anything Goes"
    PERFORMER "Bing Crosby"
    INDEX 00 26:25:05
    INDEX 01 26:25:46
  TRACK 13 AUDIO
    TITLE "Pennies from Heaven"
    PERFORMER "Bing Crosby"
    INDEX 00 28:20:65
    INDEX 01 28:23:46
  TRACK 14 AUDIO
    TITLE "Down Argentine Way / What a Difference A Day Made"
    PERFORMER "Bing Crosby"
    INDEX 00 31:44:59
    INDEX 01 31:47:35
回复 支持 反对

使用道具 举报

发表于 2018-11-20 15:47:37 | 显示全部楼层
看到大江东去,毫不犹豫就回复了。
回复 支持 反对

使用道具 举报

发表于 2018-11-27 15:11:24 | 显示全部楼层
补充一个完整的CUE文件,如有错误请大家自行修正。
REM DISCID B0081C0E
REM COMMENT "ExactAudioCopy v1.3"
PERFORMER "Bing Crosby"
TITLE "songbook"
REM COMPOSER ""
FILE "Bing Crosby - songbook.wav" WAVE
  TRACK 01 AUDIO
    TITLE "As Time Goes By"
    PERFORMER "Bing Crosby"
    REM COMPOSER ""
    INDEX 01 00:00:00
  TRACK 02 AUDIO
    TITLE "I'll Be Seeing You"
    PERFORMER "Bing Crosby"
    REM COMPOSER ""
    INDEX 00 01:50:46
    INDEX 01 01:54:04
  TRACK 03 AUDIO
    TITLE "Don't Get Around Much Anymore"
    PERFORMER "Bing Crosby"
    REM COMPOSER ""
    INDEX 00 05:04:41
    INDEX 01 05:06:61
  TRACK 04 AUDIO
    TITLE "The Nearness Of You"
    PERFORMER "Bing Crosby"
    REM COMPOSER ""
    INDEX 00 07:58:56
    INDEX 01 08:00:37
  TRACK 05 AUDIO
    TITLE "Cheek To Cheek"
    PERFORMER "Bing Crosby"
    REM COMPOSER ""
    INDEX 00 10:07:46
    INDEX 01 10:11:07
  TRACK 06 AUDIO
    TITLE "That Old Black Magic"
    PERFORMER "Bing Crosby"
    REM COMPOSER ""
    INDEX 00 12:11:24
    INDEX 01 12:14:41
  TRACK 07 AUDIO
    TITLE "Ain't Misbehavin'"
    PERFORMER "Bing Crosby"
    REM COMPOSER ""
    INDEX 00 14:31:27
    INDEX 01 14:34:55
  TRACK 08 AUDIO
    TITLE "So Wonderful"
    PERFORMER "Bing Crosby"
    REM COMPOSER ""
    INDEX 00 16:47:19
    INDEX 01 16:50:13
  TRACK 09 AUDIO
    TITLE "Beautiful Dreamer"
    PERFORMER "Bing Crosby"
    REM COMPOSER ""
    INDEX 00 18:37:13
    INDEX 01 18:41:06
  TRACK 10 AUDIO
    TITLE "InThe Still Of The Night/I Could Have Danced All Night"
    PERFORMER "Bing Crosby"
    REM COMPOSER ""
    INDEX 00 21:01:12
    INDEX 01 21:01:68
  TRACK 11 AUDIO
    TITLE "Get Happy"
    PERFORMER "Bing Crosby"
    REM COMPOSER ""
    INDEX 00 24:05:03
    INDEX 01 24:07:10
  TRACK 12 AUDIO
    TITLE "Anything Goes"
    PERFORMER "Bing Crosby"
    REM COMPOSER ""
    INDEX 00 26:25:05
    INDEX 01 26:25:46
  TRACK 13 AUDIO
    TITLE "Pennies From Heaven"
    PERFORMER "Bing Crosby"
    REM COMPOSER ""
    INDEX 00 28:20:65
    INDEX 01 28:23:46
  TRACK 14 AUDIO
    TITLE "Down Argentine Way/What A Difference A Day Made"
    PERFORMER "Bing Crosby"
    REM COMPOSER ""
    INDEX 00 31:44:59
    INDEX 01 31:47:35
回复 支持 反对

使用道具 举报

您需要登录后才可以回帖 登录 | 立即注册

本版积分规则

手机版|炫音音乐论坛 ( 皖ICP备13017420号-3 )皖公网安备 34082502000069号

GMT+8, 2018-12-17 19:05 , Processed in 0.069026 second(s), 16 queries , Gzip On.

Powered by Discuz! X3.4

© 2004-2017 炫音音乐论坛

快速回复 返回顶部 返回列表