查看: 1739|回复: 66

[华语流行] 【自购原抓】陆宝《爱听》 HQCD 1CD 限量编号签名版 2017

  [复制链接]
发表于 2017-11-25 16:56:47 | 显示全部楼层 |阅读模式
專輯介紹:

一位从事演艺幕后的专业人-陆宝,从黎小田老师发掘唱和音做起,直至今天,曾与多位歌星共事,默默为业界耕耘。今天在乐坛-叶振棠、录音师-黎承昌恊制下,风行唱片精益求精,特别采用HQCD技术压制CD专辑,务求带给听众更模拟(Analog) 感觉!
陸寶2017年最新錄音、編曲、『愛聽-陸寶』,包括原創歌曲【再細聽】。DXD調音工程由錄音大師Terence負責操刀,全程採用OPPO PM1/HA-1耳機系統鑑聽,日本Memory Tech製版壓碟。首批限量珍藏版、附獨立編號。



專輯曲目:
01. 偶遇

02. 忘不了你

03. 盼三年

04. 石头记

05. 情深缘浅

06. 怎麽捨得你

07. 红颜白髮

08. 缘份

09. 不再分离

10. 再细听

11. 在我生命裡

12. 月亮代表我的心

Exact Audio Copy V1.3 from 2. September 2016

EAC 抓取日志文件从28. 十月 2017, 3:04

陆宝 / 爱听

使用驱动器  :YAMAHA  CRW-F1E   Adapter: 1  ID: 0

读取模式      : 可靠Secure
使用精确流     : 是
清空音频缓存    : 是
使用 C2 指示器 : 否

读取偏移校正:               : 733
读取 Lead-In 和 Lead-Out : 否
用静音填充抓取中丢失偏移的采样       : 是
去除首尾静音块               : 否
在CRC 计算中使用了空样本       : 是
已用接口                  : Win NT 及 2000 本地 Win32 接口

所用输出模式: : 内部 WAV 函数
样本格式    : 44.100 Hz; 16 Bit; 立体声


已抓取 CD 的 TOC

     音轨 |    起始    |    长度    |  起始扇区  |  结束扇区  
    --------------------------------------------
      1 |  0:00.00 |  4:12.17 |      0 |  18916
      2 |  4:12.17 |  4:26.61 |  18917 |  38927
      3 |  8:39.03 |  3:41.20 |  38928 |  55522
      4 | 12:20.23 |  4:43.62 |  55523 |  76809
      5 | 17:04.10 |  5:25.68 |  76810 | 101252
      6 | 22:30.03 |  4:33.02 | 101253 | 121729
      7 | 27:03.05 |  4:29.63 | 121730 | 141967
      8 | 31:32.68 |  4:16.46 | 141968 | 161213
      9 | 35:49.39 |  4:42.32 | 161214 | 182395
     10 | 40:31.71 |  4:23.16 | 182396 | 202136
     11 | 44:55.12 |  3:58.50 | 202137 | 220036
     12 | 48:53.62 |  5:08.18 | 220037 | 243154


范围状态及错误

已选择范围

     文件名 C:\Users\Administrator\Desktop\陆宝 - 爱听.wav

     峰值电平 100.0 %
     抓取速度 4.8 X
     范围质量 100.0 %
     复制 CRC 8E82BC9C
     复制成功

没有错误发生


AccurateRip 摘要

音轨  1  精确地校准抓取  3)  [110952EB]  (AR v2)
音轨  2  精确地校准抓取  3)  [9C5D2C82]  (AR v2)
音轨  3  精确地校准抓取  3)  [3C708545]  (AR v2)
音轨  4  精确地校准抓取  3)  [D792BE00]  (AR v2)
音轨  5  精确地校准抓取  3)  [D9C98CD3]  (AR v2)
音轨  6  精确地校准抓取  3)  [6B839496]  (AR v2)
音轨  7  精确地校准抓取  3)  [596277C8]  (AR v2)
音轨  8  精确地校准抓取  3)  [26E9E32E]  (AR v2)
音轨  9  精确地校准抓取  3)  [82FA621D]  (AR v2)
音轨 10  精确地校准抓取  3)  [2D5F5649]  (AR v2)
音轨 11  精确地校准抓取  3)  [B396BFF5]  (AR v2)
音轨 12  精确地校准抓取  3)  [BEBAE080]  (AR v2)

所有音轨精确校准抓取

状态报告结尾

---- CUETools DB Plugin V2.1.6

[CTDB TOCID: TURFBAIwwmw2p8dqwy2QrNXY7Gc-] found
Submit result: TURFBAIwwmw2p8dqwy2QrNXY7Gc- has been confirmed
Track | CTDB Status
  1   | (25/25) Accurately ripped
  2   | (25/25) Accurately ripped
  3   | (25/25) Accurately ripped
  4   | (25/25) Accurately ripped
  5   | (25/25) Accurately ripped
  6   | (25/25) Accurately ripped
  7   | (25/25) Accurately ripped
  8   | (25/25) Accurately ripped
  9   | (25/25) Accurately ripped
10   | (25/25) Accurately ripped
11   | (25/25) Accurately ripped
12   | (25/25) Accurately ripped


下载链接
游客,如果您要查看本帖隐藏内容请回复,如果您想免回复、免金币,直接查看内容,请开通炫音VIP

cover.jpg
 楼主| 发表于 2017-11-25 16:57:17 | 显示全部楼层
自购正版,雅马哈F1慢速抓轨。图片与介绍来源于网络。本音轨仅供试听,请勿用于任何商业用途,下载24小时内请予删除。如若喜欢请购买正版CD。

评分

参与人数 1音符 +5 炫币 +5 收起 理由
樱樱 + 5 + 5 炫音因你而精彩!

查看全部评分

回复 支持 反对

使用道具 举报

发表于 2017-11-26 13:31:25 | 显示全部楼层
陆宝 - 04. 石头记

回复 支持 反对

使用道具 举报

发表于 2017-11-26 20:12:27 | 显示全部楼层
觉得太温柔了点,谢谢!!
回复 支持 反对

使用道具 举报

发表于 2017-11-27 01:24:33 | 显示全部楼层
非常棒的试音碟,谢谢分享。
回复 支持 反对

使用道具 举报

发表于 2017-11-27 16:08:46 | 显示全部楼层
感谢楼主分享好音乐
回复 支持 反对

使用道具 举报

发表于 2017-11-28 11:06:09 | 显示全部楼层
试试陆宝大哥宝碟。
回复 支持 反对

使用道具 举报

发表于 2017-11-28 16:00:03 | 显示全部楼层
虽然没有试听,也第一次听说这位歌手,为支持楼主还是购买来试听下。谢谢!
回复 支持 反对

使用道具 举报

发表于 2017-11-28 16:00:47 | 显示全部楼层
虽然没有试听,也第一次听说这位歌手,为支持楼主还是购买来试听下。谢谢!
回复 支持 反对

使用道具 举报

发表于 2017-11-29 14:57:25 | 显示全部楼层
试音碟,谢谢分享
回复 支持 反对

使用道具 举报

发表于 2017-11-29 14:59:02 | 显示全部楼层
非常棒的试音碟,谢谢分享
回复 支持 反对

使用道具 举报

发表于 2017-12-5 23:48:33 | 显示全部楼层
vcxbccdfdsf
回复 支持 反对

使用道具 举报

您需要登录后才可以回帖 登录 | 立即注册

本版积分规则

手机版|炫音音乐论坛 ( 皖ICP备13017420号-3 )皖公网安备 34082502000069号

GMT+8, 2018-6-18 09:45 , Processed in 0.068382 second(s), 25 queries , Gzip On.

Powered by Discuz! X3.4

© 2004-2017 炫音音乐论坛

快速回复 返回顶部 返回列表