查看: 1251|回复: 7

[讨论] 【求助】5.1功放为什么不能播放6.1dts 格式音频?

[复制链接]
发表于 2017-12-14 15:49:10 | 显示全部楼层 |阅读模式
本帖最后由 laoxu23 于 2017-12-14 16:16 编辑

诚心求助各位大咖:
家里是5.1的先锋家庭影院,下载了一个文件:James Horner《泰坦尼克号(Titanic)电影原声带》DTS-ES6.1WAV
但是功放出来的声音是断断续续的,且沙哑,根本不完整,也没法听。
文件属性:
泰坦尼克.jpg

求助各位大咖,这个是什么情况?怎么解决?
下载的其他文件(萨克斯惊世发烧极品 想想 回家 DTS WAV分轨 CD1)是可以正常播放的,是5.1声道。
文件属性:
萨克斯.jpg

属性对比,看起来只有这两处区别:
对比.jpg

==============同样情况,一些电影也是================
《疯狂的麦克斯》,音频是正常的,5.1声道。
属性如下:
General
Unique ID                      : 246104573461586849734139404058950990745 (0xB926044999590246ACDCC7F3995D7B99)
Complete name                  : F:\4k电影\疯狂的麦克斯\Mad Max Fury Road.mkv
Format                         : Matroska
Format version                 : Version 4 / Version 2
File size                      : 40.5 GiB
Duration                       : 2 h 0 min
Overall bit rate mode          : Variable
Overall bit rate               : 48.2 Mb/s
Encoded date                   : UTC 2016-06-05 20:54:09
Writing application            : mkvmerge v9.1.0 ('Little Earthquakes') 64bit
Writing library                : libebml v1.3.3 + libmatroska v1.4.4

Video
ID                             : 1
Format                         : HEVC
Format/Info                    : High Efficiency Video Coding
Format profile                 : Main 10@L5.1@Main
Codec ID                       : V_MPEGH/ISO/HEVC
Duration                       : 2 h 0 min
Bit rate                       : 39.8 Mb/s
Width                          : 3 840 pixels
Height                         : 1 600 pixels
Display aspect ratio           : 2.40:1
Frame rate mode                : Constant
Frame rate                     : 23.976 (24000/1001) FPS
Color space                    : YUV
Chroma subsampling             : 4:2:0
Bit depth                      : 10 bits
Bits/(Pixel*Frame)             : 0.270
Stream size                    : 33.4 GiB (83%)
Writing library                : x265 1.9+3-63308f7658c3:[Windows][GCC 5.2.0][64 bit] 10bit
Encoding settings              : wpp / ctu=64 / min-cu-size=8 / max-tu-size=32 / tu-intra-depth=1 / tu-inter-depth=1 / me=1 / subme=2 / merange=57 / no-rect / no-amp / max-merge=2 / temporal-mvp / no-early-skip / rdpenalty=0 / no-tskip / no-tskip-fast / strong-intra-smoothing / no-lossless / no-cu-lossless / no-constrained-intra / fast-intra / open-gop / no-temporal-layers / interlace=0 / keyint=240 / min-keyint=24 / scenecut=40 / rc-lookahead=15 / lookahead-slices=8 / bframes=4 / bframe-bias=0 / b-adapt=0 / ref=3 / limit-refs=3 / no-limit-modes / weightp / no-weightb / aq-mode=1 / qg-size=32 / aq-strength=1.00 / cbqpoffs=0 / crqpoffs=0 / rd=2 / psy-rd=2.00 / rdoq-level=0 / psy-rdoq=0.00 / signhide / deblock / sao / no-sao-non-deblock / b-pyramid / cutree / no-intra-refresh / rc=abr / bitrate=40000 / qcomp=0.60 / qpmin=0 / qpmax=51 / qpstep=4 / ipratio=1.40 / pbratio=1.30
Default                        : Yes
Forced                         : No
Color range                    : Limited
Color primaries                : BT.709
Transfer characteristics       : BT.709
Matrix coefficients            : BT.601

Audio #1
ID                             : 2
Format                         : Atmos / TrueHD
Codec ID                       : A_TRUEHD
Duration                       : 2 h 0 min
Bit rate mode                  : Variable
Bit rate                       : 5 694 kb/s
Maximum bit rate               : 8 412 kb/s
Channel(s)                     : Object Based / 8 channels
Channel positions              : Object Based / Front: L C R, Side: L R, Back: L R, LFE
Sampling rate                  :  / 48.0 kHz
Frame rate                     : 1 200.000 FPS (40 spf)
Compression mode               : Lossless
Delay relative to video        : 1 ms
Stream size                    : 4.79 GiB (12%)
Language                       : English
Default                        : No
Forced                         : No

Audio #2
ID                             : 3
Format                         : AC-3
Format/Info                    : Audio Coding 3
Mode extension                 : CM (complete main)
Format settings, Endianness    : Big
Codec ID                       : A_AC3
Duration                       : 2 h 0 min
Bit rate mode                  : Constant
Bit rate                       : 384 kb/s
Channel(s)                     : 6 channels
Channel positions              : Front: L C R, Side: L R, LFE
Sampling rate                  : 48.0 kHz
Frame rate                     : 31.250 FPS (1536 spf)
Bit depth                      : 16 bits
Compression mode               : Lossy
Delay relative to video        : 15 ms
Stream size                    : 331 MiB (1%)
Language                       : English
Default                        : No
Forced                         : No

Audio #3
ID                             : 4
Format                         : AC-3
Format/Info                    : Audio Coding 3
Mode extension                 : CM (complete main)
Format settings, Endianness    : Big
Codec ID                       : A_AC3
Duration                       : 2 h 0 min
Bit rate mode                  : Constant
Bit rate                       : 448 kb/s
Channel(s)                     : 6 channels
Channel positions              : Front: L C R, Side: L R, LFE
Sampling rate                  : 48.0 kHz
Frame rate                     : 31.250 FPS (1536 spf)
Bit depth                      : 16 bits
Compression mode               : Lossy
Delay relative to video        : 15 ms
Stream size                    : 386 MiB (1%)
Language                       : English
Default                        : No
Forced                         : No

Audio #4
ID                             : 5
Format                         : AC-3
Format/Info                    : Audio Coding 3
Mode extension                 : CM (complete main)
Format settings, Endianness    : Big
Codec ID                       : A_AC3
Duration                       : 2 h 0 min
Bit rate mode                  : Constant
Bit rate                       : 448 kb/s
Channel(s)                     : 6 channels
Channel positions              : Front: L C R, Side: L R, LFE
Sampling rate                  : 48.0 kHz
Frame rate                     : 31.250 FPS (1536 spf)
Bit depth                      : 16 bits
Compression mode               : Lossy
Delay relative to video        : 15 ms
Stream size                    : 386 MiB (1%)
Language                       : French
Default                        : No
Forced                         : No

Audio #5
ID                             : 6
Format                         : AC-3
Format/Info                    : Audio Coding 3
Mode extension                 : CM (complete main)
Format settings, Endianness    : Big
Codec ID                       : A_AC3
Duration                       : 2 h 0 min
Bit rate mode                  : Constant
Bit rate                       : 448 kb/s
Channel(s)                     : 6 channels
Channel positions              : Front: L C R, Side: L R, LFE
Sampling rate                  : 48.0 kHz
Frame rate                     : 31.250 FPS (1536 spf)
Bit depth                      : 16 bits
Compression mode               : Lossy
Delay relative to video        : 15 ms
Stream size                    : 386 MiB (1%)
Language                       : Spanish
Default                        : No
Forced                         : No

Audio #6
ID                             : 7
Format                         : AC-3
Format/Info                    : Audio Coding 3
Mode extension                 : CM (complete main)
Format settings, Endianness    : Big
Codec ID                       : A_AC3
Duration                       : 2 h 0 min
Bit rate mode                  : Constant
Bit rate                       : 448 kb/s
Channel(s)                     : 6 channels
Channel positions              : Front: L C R, Side: L R, LFE
Sampling rate                  : 48.0 kHz
Frame rate                     : 31.250 FPS (1536 spf)
Bit depth                      : 16 bits
Compression mode               : Lossy
Delay relative to video        : 15 ms
Stream size                    : 386 MiB (1%)
Language                       : Portuguese
Default                        : No
Forced                         : No

Audio #7
ID                             : 8
Format                         : AC-3
Format/Info                    : Audio Coding 3
Mode extension                 : CM (complete main)
Format settings, Endianness    : Big
Codec ID                       : A_AC3
Duration                       : 2 h 0 min
Bit rate mode                  : Constant
Bit rate                       : 448 kb/s
Channel(s)                     : 6 channels
Channel positions              : Front: L C R, Side: L R, LFE
Sampling rate                  : 48.0 kHz
Frame rate                     : 31.250 FPS (1536 spf)
Bit depth                      : 16 bits
Compression mode               : Lossy
Delay relative to video        : 15 ms
Stream size                    : 386 MiB (1%)
Language                       : Thai
Default                        : No
Forced                         : No

另外一部电影是不好使的,没有声音《Guardians.of.the.Galaxy.Vol.2.2017.2160p.BluRay.x265.10bit.SDR.DTS-HD.MA.TrueHD.7.1.Atmos-SWTYBLZ》
属性如下:
General
Unique ID                      : 246224122410747956003758192429844144690 (0xB93D0A81799E29DDB13DF5B8A2EC2232)
Complete name                  : F:\4k电影\Guardians.of.the.Galaxy.Vol.2.2017.2160p.BluRay.x265.10bit.SDR.DTS-HD.MA.TrueHD.7.1.Atmos-SWTYBLZ.mkv
Format                         : Matroska
Format version                 : Version 4 / Version 2
File size                      : 30.9 GiB
Duration                       : 2 h 15 min
Overall bit rate mode          : Variable
Overall bit rate               : 32.6 Mb/s
Movie name                     : Guardians.of.the.Galaxy.Vol.2.2017.2160p.BluRay.x265.10bit.SDR.DTS-HD.MA.TrueHD.7.1.Atmos-SWTYBLZ
Encoded date                   : UTC 2017-10-11 04:58:21
Writing application            : mkvmerge v16.0.0 ('Protest') 64-bit
Writing library                : libebml v1.3.5 + libmatroska v1.4.8
Cover                          : Yes
Attachments                    : cover.jpg

Video
ID                             : 1
Format                         : HEVC
Format/Info                    : High Efficiency Video Coding
Format profile                 : Main 10@L5.1@High
Codec ID                       : V_MPEGH/ISO/HEVC
Duration                       : 2 h 15 min
Bit rate                       : 20.5 Mb/s
Width                          : 3 840 pixels
Height                         : 1 606 pixels
Display aspect ratio           : 2.40:1
Frame rate mode                : Constant
Frame rate                     : 23.976 (24000/1001) FPS
Color space                    : YUV
Chroma subsampling             : 4:2:0
Bit depth                      : 10 bits
Bits/(Pixel*Frame)             : 0.139
Stream size                    : 19.4 GiB (63%)
Title                          : Guardians.of.the.Galaxy.Vol.2.2017.2160p.BluRay.x265.10bit.SDR.DTS-HD.MA.TrueHD.7.1.Atmos-SWTYBLZ
Writing library                : x265 2.5+4-b4a5bcfe29c7:[Windows][GCC 4.9.3][64 bit] 10bit
Encoding settings              : cpuid=1173503 / frame-threads=16 / numa-pools=24,24,24,24 / wpp / no-pmode / no-pme / no-psnr / no-ssim / log-level=2 / input-csp=1 / input-res=3840x1606 / interlace=0 / total-frames=0 / level-idc=51 / high-tier=1 / uhd-bd=0 / ref=3 / no-allow-non-conformance / repeat-headers / annexb / aud / hrd / info / hash=0 / no-temporal-layers / no-open-gop / min-keyint=1 / keyint=24 / bframes=4 / b-adapt=2 / b-pyramid / bframe-bias=0 / rc-lookahead=25 / lookahead-slices=4 / scenecut=40 / no-intra-refresh / ctu=64 / min-cu-size=8 / no-rect / no-amp / max-tu-size=32 / tu-inter-depth=1 / tu-intra-depth=1 / limit-tu=0 / rdoq-level=0 / dynamic-rd=0.00 / no-ssim-rd / signhide / no-tskip / nr-intra=0 / nr-inter=0 / no-constrained-intra / strong-intra-smoothing / max-merge=2 / limit-refs=3 / no-limit-modes / me=1 / subme=2 / merange=57 / temporal-mvp / weightp / no-weightb / no-analyze-src-pics / deblock=0:0 / no-sao / no-sao-non-deblock / rd=3 / no-early-skip / rskip / no-fast-intra / no-tskip-fast / no-cu-lossless / no-b-intra / rdpenalty=0 / psy-rd=2.00 / psy-rdoq=0.00 / no-rd-refine / analysis-reuse-mode=0 / no-lossless / cbqpoffs=0 / crqpoffs=0 / rc=crf / crf=16.0 / qcomp=0.60 / qpstep=4 / stats-write=0 / stats-read=0 / vbv-maxrate=160000 / vbv-bufsize=160000 / vbv-init=0.9 / crf-max=0.0 / crf-min=0.0 / ipratio=1.40 / pbratio=1.30 / aq-mode=1 / aq-strength=1.00 / cutree / zone-count=0 / no-strict-cbr / qg-size=32 / no-rc-grain / qpmax=69 / qpmin=0 / no-const-vbv / sar=1 / overscan=0 / videoformat=5 / range=0 / colorprim=2 / transfer=2 / colormatrix=2 / chromaloc=0 / display-window=0 / max-cll=0,0 / min-luma=0 / max-luma=1023 / log2-max-poc-lsb=8 / vui-timing-info / vui-hrd-info / slices=1 / opt-qp-pps / opt-ref-list-length-pps / no-multi-pass-opt-rps / scenecut-bias=0.05 / no-opt-cu-delta-qp / no-aq-motion / no-hdr / no-hdr-opt / no-dhdr10-opt / analysis-reuse-level=5 / scale-factor=0 / refine-intra=0 / refine-inter=0 / refine-mv=0 / no-limit-sao / ctu-info=0
Language                       : English
Default                        : Yes
Forced                         : No

Audio #1
ID                             : 2
Format                         : Atmos / TrueHD
Codec ID                       : A_TRUEHD
Duration                       : 2 h 15 min
Bit rate mode                  : Variable
Bit rate                       : 7 508 kb/s
Maximum bit rate               : 11.3 Mb/s
Channel(s)                     : Object Based / 8 channels
Channel positions              : Object Based / Front: L C R, Side: L R, Back: L R, LFE
Sampling rate                  :  / 48.0 kHz
Frame rate                     : 1 200.000 FPS (40 spf)
Compression mode               : Lossless
Delay relative to video        : 32 ms
Stream size                    : 7.12 GiB (23%)
Title                          : Guardians.of.the.Galaxy.Vol.2.2017.2160p.BluRay.x265.10bit.SDR.DTS-HD.MA.TrueHD.7.1.Atmos-SWTYBLZ
Language                       : English
Default                        : Yes
Forced                         : No

Audio #2
ID                             : 3
Format                         : DTS
Format/Info                    : Digital Theater Systems
Format profile                 : MA / Core
Mode                           : 16
Format settings, Endianness    : Big
Codec ID                       : A_DTS
Duration                       : 2 h 15 min
Bit rate mode                  : Variable / Constant
Bit rate                       : 3 840 kb/s / 1 509 kb/s
Channel(s)                     : 8 channels / 6 channels
Channel positions              : Front: L C R, Side: L R, Back: L R, LFE / Front: L C R, Side: L R, LFE
Sampling rate                  : 48.0 kHz
Frame rate                     : 93.750 FPS (512 spf)
Bit depth                      : 24 bits
Compression mode               : Lossless / Lossy
Stream size                    : 3.64 GiB (12%)
Title                          : Guardians.of.the.Galaxy.Vol.2.2017.2160p.BluRay.x265.10bit.SDR.DTS-HD.MA.TrueHD.7.1.Atmos-SWTYBLZ
Language                       : English
Default                        : No
Forced                         : No

Audio #3
ID                             : 4
Format                         : AC-3
Format/Info                    : Audio Coding 3
Mode extension                 : CM (complete main)
Format settings, Endianness    : Big
Codec ID                       : A_AC3
Duration                       : 2 h 15 min
Bit rate mode                  : Constant
Bit rate                       : 640 kb/s
Channel(s)                     : 6 channels
Channel positions              : Front: L C R, Side: L R, LFE
Sampling rate                  : 48.0 kHz
Frame rate                     : 31.250 FPS (1536 spf)
Bit depth                      : 16 bits
Compression mode               : Lossy
Delay relative to video        : 31 ms
Stream size                    : 622 MiB (2%)
Title                          : Guardians.of.the.Galaxy.Vol.2.2017.2160p.BluRay.x265.10bit.SDR.DTS-HD.MA.TrueHD.7.1.Atmos-SWTYBLZ
Language                       : English
Default                        : No
Forced                         : No

Text #1
ID                             : 5
Format                         : UTF-8
Codec ID                       : S_TEXT/UTF8
Codec ID/Info                  : UTF-8 Plain Text
Duration                       : 2 h 14 min
Bit rate                       : 48 b/s
Count of elements              : 1630
Stream size                    : 47.8 KiB (0%)
Title                          : English-SRT
Language                       : English
Default                        : Yes
Forced                         : No

Text #2
ID                             : 6
Format                         : PGS
Muxing mode                    : zlib
Codec ID                       : S_HDMV/PGS
Codec ID/Info                  : Picture based subtitle format used on BDs/HD-DVDs
Duration                       : 2 h 14 min
Bit rate                       : 36.1 kb/s
Count of elements              : 3946
Stream size                    : 34.8 MiB (0%)
Title                          : English-PGS
Language                       : English
Default                        : No
Forced                         : No

Text #3
ID                             : 7
Format                         : PGS
Muxing mode                    : zlib
Codec ID                       : S_HDMV/PGS
Codec ID/Info                  : Picture based subtitle format used on BDs/HD-DVDs
Duration                       : 2 h 14 min
Bit rate                       : 29.8 kb/s
Count of elements              : 3236
Stream size                    : 28.7 MiB (0%)
Title                          : French-PGS
Language                       : French
Default                        : No
Forced                         : No

Text #4
ID                             : 8
Format                         : PGS
Muxing mode                    : zlib
Codec ID                       : S_HDMV/PGS
Codec ID/Info                  : Picture based subtitle format used on BDs/HD-DVDs
Duration                       : 2 h 14 min
Bit rate                       : 30.0 kb/s
Count of elements              : 3208
Stream size                    : 28.9 MiB (0%)
Title                          : Spanish-PGS
Language                       : Spanish
Default                        : No
Forced                         : No

Text #5
ID                             : 9
Format                         : PGS
Muxing mode                    : zlib
Codec ID                       : S_HDMV/PGS
Codec ID/Info                  : Picture based subtitle format used on BDs/HD-DVDs
Duration                       : 2 h 14 min
Bit rate                       : 17.7 kb/s
Count of elements              : 3176
Stream size                    : 17.0 MiB (0%)
Title                          : Chinese-PGS
Language                       : Chinese
Default                        : No
Forced                         : No

Text #6
ID                             : 10
Format                         : PGS
Muxing mode                    : zlib
Codec ID                       : S_HDMV/PGS
Codec ID/Info                  : Picture based subtitle format used on BDs/HD-DVDs
Duration                       : 2 h 14 min
Bit rate                       : 26.0 kb/s
Count of elements              : 2954
Stream size                    : 25.0 MiB (0%)
Title                          : French-PGS
Language                       : French
Default                        : No
Forced                         : No

Text #7
ID                             : 11
Format                         : PGS
Muxing mode                    : zlib
Codec ID                       : S_HDMV/PGS
Codec ID/Info                  : Picture based subtitle format used on BDs/HD-DVDs
Duration                       : 2 h 14 min
Bit rate                       : 31.4 kb/s
Count of elements              : 3070
Stream size                    : 30.2 MiB (0%)
Title                          : German-PGS
Language                       : German
Default                        : No
Forced                         : No

Text #8
ID                             : 12
Format                         : PGS
Muxing mode                    : zlib
Codec ID                       : S_HDMV/PGS
Codec ID/Info                  : Picture based subtitle format used on BDs/HD-DVDs
Duration                       : 2 h 14 min
Bit rate                       : 22.3 kb/s
Count of elements              : 2824
Stream size                    : 21.6 MiB (0%)
Title                          : Japanese-PGS
Language                       : Japanese
Default                        : No
Forced                         : No

Text #9
ID                             : 13
Format                         : PGS
Muxing mode                    : zlib
Codec ID                       : S_HDMV/PGS
Codec ID/Info                  : Picture based subtitle format used on BDs/HD-DVDs
Duration                       : 2 h 14 min
Bit rate                       : 20.7 kb/s
Count of elements              : 3290
Stream size                    : 19.9 MiB (0%)
Title                          : Chinese-PGS
Language                       : Chinese
Default                        : No
Forced                         : No

Menu
00:00:00.000                   : en:Chapter 1
00:09:56.178                   : en:Chapter 2
00:15:10.117                   : en:Chapter 3
00:22:14.082                   : en:Chapter 4
00:32:33.701                   : en:Chapter 5
00:36:52.126                   : en:Chapter 6
00:42:29.171                   : en:Chapter 7
00:48:03.463                   : en:Chapter 8
00:53:18.904                   : en:Chapter 9
00:58:45.939                   : en:Chapter 10
01:05:52.239                   : en:Chapter 11
01:11:12.434                   : en:Chapter 12
01:18:43.593                   : en:Chapter 13
01:23:55.321                   : en:Chapter 14
01:30:24.752                   : en:Chapter 15
01:39:36.178                   : en:Chapter 16
01:47:06.211                   : en:Chapter 17
01:54:21.604                   : en:Chapter 18
01:58:53.709                   : en:Chapter 19
02:07:13.459                   : en:Chapter 20

 楼主| 发表于 2017-12-14 16:08:18 | 显示全部楼层
自己顶一下!
回复 支持 反对

使用道具 举报

 楼主| 发表于 2017-12-15 09:11:35 | 显示全部楼层
怎么破啊 各位!!!
回复 支持 反对

使用道具 举报

 楼主| 发表于 2018-1-9 15:41:11 | 显示全部楼层
是不是dts es格式的音乐不支持呢?
回复 支持 反对

使用道具 举报

发表于 2018-1-15 23:31:03 | 显示全部楼层
你先说一下,你先锋功放型号是多少?播放器是POTPLAYER还是其他的播放器?
你先按照我的说法操作:
使用POTPLAYER源码输出到功放,如果声音正常,那就是你的音乐播放器有问题。
包括后面的影片Guardians.of.the.Galaxy.Vol.2.2017.2160p.BluRay.x265.10bit.SDR.DTS-HD.MA.TrueHD.7.1.Atmos-SWTYBLZ
如果功放不支持,会降码播放,但是如果播放器不支持,就会没声音。
回复 支持 反对

使用道具 举报

 楼主| 发表于 2018-2-2 10:43:57 | 显示全部楼层
本帖最后由 laoxu23 于 2018-2-8 11:43 编辑
MMCCDV 发表于 2018-1-15 23:31
你先说一下,你先锋功放型号是多少?播放器是POTPLAYER还是其他的播放器?
你先按照我的说法操作:
使用P ...


功放是先锋HTS-SLH400,比较旧的型号了。
直接使用索尼电视进行播放,电视的声音是正常的,但是打开功放的声音就是噪声。而且是有时候是好用的、有时不好用,估计是功放质量问题····
回复 支持 反对

使用道具 举报

 楼主| 发表于 2018-2-26 15:25:05 | 显示全部楼层
补充:
关于播放电影时,出现bug情况时,拔掉电视机电源重启一下电视机,之后就正常了···
另外,此时关掉功放,使用电视机扬声器能正常播放声音···
电视和功放厂家都没有太好的回复,也是醉了
回复 支持 反对

使用道具 举报

您需要登录后才可以回帖 登录 | 立即注册

本版积分规则

手机版|炫音音乐论坛 ( 皖ICP备13017420号-3 )皖公网安备 34082502000069号

GMT+8, 2018-11-19 11:01 , Processed in 0.059640 second(s), 13 queries , Gzip On, File On.

Powered by Discuz! X3.4

© 2004-2017 炫音音乐论坛

快速回复 返回顶部 返回列表