查看: 4429|回复: 404

[华语流行] 正版原抓 许美静《醇经典》[WAV/百度云]

   关闭 [复制链接]
发表于 2017-12-23 14:01:51 | 显示全部楼层 |阅读模式
专辑名称:醇经典.经典情歌精选
专辑艺人:许美静
发行公司:环球唱片有限公司版权提供
出版公司:珠影白天鹅音像出版社
发行时间:2005年06月15日
资源类型:WAV+CUE


专辑简介:
环球唱片独家授权天凯唱片正版发行
专辑内所有歌曲之母带经由PHILIPS SA-DC泛亚录音中心制作
环球历年经典靓歌 首首情牵曲曲动听
魅力之作无法抗拒 超值珍藏切勿错过
收录许美静经典歌曲12首,包括:铁窗、城里的月光、都是夜归人等
经典年代见证乐坛光辉成就,忆起当年无尽往事,重拾经典难忘金曲。
老歌仍像一杯陈年的酒在不经意间品尝另有一种滋味。好歌如醇,愈久弥笃。

专辑曲目:
01.铁窗
02.城里的月光
03.都是夜归人
04.影子情人
05.遗憾
06.蔓延
07.听那星光歌唱
08.明知故犯
09.放你在心里
10.你抽的烟
11.边界1999
12. 阳光总在风雨后

游客,如果您要查看本帖隐藏内容请回复,如果您想免回复、免金币,直接查看内容,请开通炫音VIP
1.jpg
2.jpg
3.jpg

评分

参与人数 3音符 +16 炫币 +16 收起 理由
清澈的泉水 + 1 + 1 炫音因你而精彩!
wufeng + 10 赞一个!

查看全部评分

 楼主| 发表于 2017-12-23 14:02:53 | 显示全部楼层
xact Audio Copy V0.99 prebeta 3 from 28. July 2007

EAC 抓取日志文件从28. 十月 2017, 13:32

许美静 / 醇经典

使用驱动器  :HL-DT-STDVDRAM GH22NS50   Adapter: 1  ID: 0

读取模式     : 保护
使用精确流   : 是
废除音频缓冲 : 是
使用 C2 指针 : 否

读取偏移校正                   : 106
读取 Lead-In 和 Lead-Out       : 否
用静音填充抓取中丢失偏移的采样 : 是
去除首尾静音块                 : 否
在 CRC 计算中使用了空样本      : 是
已用接口                       : 已安装外部 ASPI 接口

所用输出格式 : 内部 WAV 函数
样本格式     : 44.100 Hz;16 Bit;立体声


被抓轨 CD 的 TOC

     音轨 |   开始   |   长度   | 起始扇区 | 结尾扇区
    --------------------------------------------------
       1  |  0:00.00 |  4:46.06 |       0  |   21455  
       2  |  4:46.06 |  5:18.67 |   21456  |   45372  
       3  | 10:04.73 |  5:00.01 |   45373  |   67873  
       4  | 15:04.74 |  3:51.06 |   67874  |   85204  
       5  | 18:56.05 |  4:41.20 |   85205  |  106299  
       6  | 23:37.25 |  4:55.45 |  106300  |  128469  
       7  | 28:32.70 |  5:22.52 |  128470  |  152671  
       8  | 33:55.47 |  4:21.26 |  152672  |  172272  
       9  | 38:16.73 |  4:55.44 |  172273  |  194441  
      10  | 43:12.42 |  4:11.70 |  194442  |  213336  
      11  | 47:24.37 |  4:40.31 |  213337  |  234367  
      12  | 52:04.68 |  5:01.58 |  234368  |  257000  


范围状态及错误

已选择范围

     文件名 E:\百度网盘\许美静-醇经典\许美静 - 醇经典.wav

     峰值电平 100.0 %
     范围质量 100.0 %
     复制 CRC 8B108810
     复制成功

没有错误发生

状态报告结尾
回复 支持 反对

使用道具 举报

 楼主| 发表于 2017-12-23 14:03:19 | 显示全部楼层
REM GENRE Pop
REM DISCID AD0D620C
REM COMMENT "ExactAudioCopy v0.99pb3"
PERFORMER "许美静"
TITLE "醇经典"
FILE "许美静 - 醇经典.wav" WAVE
  TRACK 01 AUDIO
    TITLE "铁窗"
    PERFORMER "许美静"
    INDEX 01 00:00:00
  TRACK 02 AUDIO
    TITLE "城里的月光"
    PERFORMER "许美静"
    INDEX 00 04:43:51
    INDEX 01 04:46:06
  TRACK 03 AUDIO
    TITLE "都是夜归人"
    PERFORMER "许美静"
    INDEX 00 10:02:43
    INDEX 01 10:04:73
  TRACK 04 AUDIO
    TITLE "影子情人"
    PERFORMER "许美静"
    INDEX 00 15:02:44
    INDEX 01 15:04:74
  TRACK 05 AUDIO
    TITLE "遗憾"
    PERFORMER "许美静"
    INDEX 00 18:53:50
    INDEX 01 18:56:05
  TRACK 06 AUDIO
    TITLE "蔓延"
    PERFORMER "许美静"
    INDEX 00 23:34:70
    INDEX 01 23:37:25
  TRACK 07 AUDIO
    TITLE "听那星光唱歌"
    PERFORMER "许美静"
    INDEX 00 28:30:40
    INDEX 01 28:32:70
  TRACK 08 AUDIO
    TITLE "明知故犯"
    PERFORMER "许美静"
    INDEX 00 33:53:17
    INDEX 01 33:55:47
  TRACK 09 AUDIO
    TITLE "放你在心里"
    PERFORMER "许美静"
    INDEX 00 38:14:43
    INDEX 01 38:16:73
  TRACK 10 AUDIO
    TITLE "你抽你的烟"
    PERFORMER "许美静"
    INDEX 00 43:10:12
    INDEX 01 43:12:42
  TRACK 11 AUDIO
    TITLE "边界1999"
    PERFORMER "许美静"
    INDEX 00 47:22:07
    INDEX 01 47:24:37
  TRACK 12 AUDIO
    TITLE "阳光总在风雨后"
    PERFORMER "许美静"
    INDEX 00 52:02:38
    INDEX 01 52:04:68
回复 支持 反对

使用道具 举报

发表于 2017-12-23 18:07:44 | 显示全部楼层
01.铁窗

回复 支持 反对

使用道具 举报

发表于 2017-12-23 22:24:47 | 显示全部楼层
都是一些经典歌曲,听起来倍感亲切,仿佛又回到了过去,回到了歌曲所带来的意境中~~
回复 支持 反对

使用道具 举报

发表于 2017-12-23 23:41:33 来自手机 | 显示全部楼层
很好听的音乐,谢谢楼主分享!
回复 支持 反对

使用道具 举报

发表于 2017-12-24 02:42:23 | 显示全部楼层
阳光总在风雨后,感谢楼主分享。
回复 支持 反对

使用道具 举报

发表于 2017-12-24 04:26:16 | 显示全部楼层
谢谢楼主分享
回复 支持 反对

使用道具 举报

头像被屏蔽
发表于 2017-12-24 08:06:22 | 显示全部楼层
提示: 作者被禁止或删除 内容自动屏蔽
回复 支持 反对

使用道具 举报

发表于 2017-12-24 08:22:42 | 显示全部楼层
谢谢提供正版原抓 许美静《醇经典》。
回复 支持 反对

使用道具 举报

发表于 2017-12-24 08:23:42 | 显示全部楼层
感谢楼主分享。
回复 支持 反对

使用道具 举报

发表于 2017-12-24 08:25:55 | 显示全部楼层
感谢楼主分享。
回复 支持 反对

使用道具 举报

发表于 2017-12-24 08:26:44 | 显示全部楼层
感谢楼主分享。
回复 支持 反对

使用道具 举报

发表于 2017-12-24 08:27:30 | 显示全部楼层
haishi老歌手的音乐好硬
回复 支持 反对

使用道具 举报

发表于 2017-12-24 08:35:13 | 显示全部楼层
很好听的音乐,谢谢楼主分享!
回复 支持 反对

使用道具 举报

您需要登录后才可以回帖 登录 | 立即注册

本版积分规则

手机版|炫音音乐论坛 ( 皖ICP备13017420号-3 )皖公网安备 34082502000069号

GMT+8, 2018-9-25 01:13 , Processed in 0.058442 second(s), 11 queries , Gzip On, File On.

Powered by Discuz! X3.4

© 2004-2017 炫音音乐论坛

快速回复 返回顶部 返回列表