查看: 5694|回复: 405

[华语流行] 正版原抓 孙露《我的歌 MY SONG》[flac/百度云]

  [复制链接]
发表于 2017-12-24 10:55:25 | 显示全部楼层 |阅读模式
专辑名称:我的歌MY SONG
专辑艺人:孙露
唱片公司:通力唱片
发行时间:2015.11.04
资源格式:FLAC


     


专辑介绍:

我们唱了很多情歌,听了很多情歌,或许也为了爱写了很多情
歌,可在唱的时候,听的时候,你是什么感受呢?是湿了眼眶
,还是微笑着?这一曲曲的背后,又有你的什么样的一个故事
呢?疗伤歌后孙露全新专辑《我的歌 My Song》,今秋温暖上线。


专辑曲目:

01.怕什么孤单
02.遗憾
03.旅行中的想念
04.走吧
05.计算
06.别傻了
07.你在哪里
08.路过的幸福
09.何必在一起
10.情歌
游客,如果您要查看本帖隐藏内容请回复,如果您想免回复、免金币,直接查看内容,请开通炫音VIP
1.jpg
2.jpg
3.jpg

评分

参与人数 2音符 +6 炫币 +6 收起 理由
清澈的泉水 + 1 + 1 炫音因你而精彩!
樱樱 + 5 FLAC

查看全部评分

 楼主| 发表于 2017-12-24 10:55:47 | 显示全部楼层
Exact Audio Copy V0.99 prebeta 3 from 28. July 2007

EAC 抓取日志文件从24. 十二月 2017, 10:48

孙露 / 我的歌 MY SONG

使用驱动器  :HL-DT-STDVDRAM GH22NS50   Adapter: 1  ID: 0

读取模式     : 保护
使用精确流   : 是
废除音频缓冲 : 是
使用 C2 指针 : 否

读取偏移校正                   : 106
读取 Lead-In 和 Lead-Out       : 否
用静音填充抓取中丢失偏移的采样 : 是
去除首尾静音块                 : 否
在 CRC 计算中使用了空样本      : 是
已用接口                       : 已安装外部 ASPI 接口

所用输出格式 : 内部 WAV 函数
样本格式     : 44.100 Hz;16 Bit;立体声
使用压缩偏移 : 7


被抓轨 CD 的 TOC

     音轨 |   开始   |   长度   | 起始扇区 | 结尾扇区
    --------------------------------------------------
       1  |  0:00.00 |  4:12.59 |       0  |   18958  
       2  |  4:12.59 |  3:40.39 |   18959  |   35497  
       3  |  7:53.23 |  3:23.42 |   35498  |   50764  
       4  | 11:16.65 |  3:12.34 |   50765  |   65198  
       5  | 14:29.24 |  3:43.45 |   65199  |   81968  
       6  | 18:12.69 |  3:52.21 |   81969  |   99389  
       7  | 22:05.15 |  4:05.54 |   99390  |  117818  
       8  | 26:10.69 |  4:57.09 |  117819  |  140102  
       9  | 31:08.03 |  3:57.01 |  140103  |  157878  
      10  | 35:05.04 |  3:46.70 |  157879  |  174898  


范围状态及错误

已选择范围

     文件名 C:\Users\Lin\Desktop\孙露 - 《我的歌 MY SONG》.flac

     峰值电平 100.0 %
     范围质量 100.0 %
     复制 CRC A7BF4FF8
     复制成功

没有错误发生

状态报告结尾

回复 支持 0 反对 1

使用道具 举报

发表于 2017-12-24 12:38:55 | 显示全部楼层
正版CD低速原抓WAV+CUE

http://bbs.musicool.cn/thread-644770-1-1.html


05.计算

回复 支持 反对

使用道具 举报

发表于 2017-12-24 14:47:02 | 显示全部楼层
感謝分享,下來享受
回复 支持 反对

使用道具 举报

发表于 2017-12-24 15:15:14 | 显示全部楼层
这张好像还没听过。
回复 支持 反对

使用道具 举报

发表于 2017-12-24 15:20:43 | 显示全部楼层
谢谢楼主的分享。
回复 支持 反对

使用道具 举报

发表于 2017-12-24 15:49:06 | 显示全部楼层
感謝分享,下來享受
回复 支持 反对

使用道具 举报

发表于 2017-12-24 15:52:47 | 显示全部楼层
谢谢分享谢谢分享
回复 支持 反对

使用道具 举报

发表于 2017-12-24 16:15:46 | 显示全部楼层
谢谢楼主的分享
回复 支持 反对

使用道具 举报

发表于 2017-12-24 16:19:48 | 显示全部楼层
没听过,下来试试,谢谢分享!
回复 支持 反对

使用道具 举报

发表于 2017-12-24 16:37:46 | 显示全部楼层
绝世好文,不得不顶
回复 支持 反对

使用道具 举报

发表于 2017-12-24 17:33:53 | 显示全部楼层
谢谢辛苦了谢谢
回复 支持 反对

使用道具 举报

发表于 2017-12-24 18:27:33 | 显示全部楼层
谢谢分享谢谢分享
回复 支持 反对

使用道具 举报

发表于 2017-12-24 18:56:45 | 显示全部楼层
孙露的歌太让人着迷,谢谢分享
回复 支持 反对

使用道具 举报

发表于 2017-12-24 19:01:26 | 显示全部楼层
谢谢分享好音乐!!!
回复 支持 反对

使用道具 举报

您需要登录后才可以回帖 登录 | 立即注册

本版积分规则

手机版|炫音音乐论坛 ( 皖ICP备13017420号-3 )皖公网安备 34082502000069号

GMT+8, 2018-8-18 12:20 , Processed in 0.043961 second(s), 12 queries , Gzip On, File On.

Powered by Discuz! X3.4

© 2004-2017 炫音音乐论坛

快速回复 返回顶部 返回列表