查看: 1644|回复: 54

[休闲音乐] 【原创】日本东京JAZZ楽団-音楽大全集14(飞利浦版)【WAV/百度】

  [复制链接]
发表于 2018-1-8 16:40:41 | 显示全部楼层 |阅读模式
本帖最后由 断剑残阳123 于 2018-10-24 18:27 编辑

CD: ミッシェル・ルグラン楽団/クレバノフ ストリングス - ムード音楽大全集 14
日本东京JAZZ楽団-音楽大全集14(飞利浦版)

IMG_20160512_0077.jpg
IMG_20160512_0078.jpg
IMG_20160512_0080.jpg

01. バラ色の人生    [0:02:34.70]
02. パリの空の下    [0:02:41.67]
03. セ・シ・ボン    [0:04:15.43]
04. パリのお嬢さん    [0:02:35.60]
05. アイ・ラヴ・パリ    [0:02:49.27]
06. マイ・ファニー・バレンタイン    [0:02:38.50]
07. 火の接吻(キッス・オブ・ファイアー)    [0:02:42.18]
08. 君住む街角~マイ・フェア・レディ    [0:02:26.12]
09. ドミノ    [0:03:01.10]
10. 紅の翼    [0:03:40.33]
11. 愛の泉    [0:02:45.72]
12. モア    [0:02:23.35]
13. タミー    [0:02:30.68]
14. 80日間世界一周    [0:03:45.10]
15. オール・ザ・ウェイ    [0:03:27.12]
16. ライムライト    [0:03:15.00]
17. マリア    [0:02:00.70]
18. 魅惑のワルツ    [0:02:55.60]


游客,如果您要查看本帖隐藏内容请回复,如果您想免回复、免金币,直接查看内容,请开通炫音VIP




  1. Exact Audio Copy V1.1 from 23. June 2015

  2. EAC 抓取日志文件从11. 十月 2016, 12:59

  3. ミッシェル・ルグラン楽団/クレバノフ ストリングス / ムード音楽大全集 14

  4. 使用驱动器  :TSSTcorpCDDVDW SH-224DB   Adapter: 1  ID: 0

  5. 读取模式      : 可靠Secure
  6. 使用精确流     : 是
  7. 清空音频缓存    : 是
  8. 使用 C2 指示器 : 否

  9. 读取偏移校正:               : 6
  10. 读取 Lead-In 和 Lead-Out : 否
  11. 用静音填充抓取中丢失偏移的采样       : 是
  12. 去除首尾静音块               : 否
  13. 在CRC 计算中使用了空样本       : 是
  14. 已用接口                  : Win NT 及 2000 本地 Win32 接口

  15. 所用输出模式: : 内部 WAV 函数
  16. 样本格式    : 44.100 Hz; 16 Bit; 立体声


  17. 已抓取 CD 的 TOC

  18.      音轨 |    起始    |    长度    |  起始扇区  |  结束扇区  
  19.     --------------------------------------------
  20.       1 |  0:00.00 |  2:34.70 |      0 |  11619
  21.       2 |  2:34.70 |  2:41.67 |  11620 |  23761
  22.       3 |  5:16.62 |  4:15.43 |  23762 |  42929
  23.       4 |  9:32.30 |  2:35.60 |  42930 |  54614
  24.       5 | 12:08.15 |  2:49.27 |  54615 |  67316
  25.       6 | 14:57.42 |  2:38.50 |  67317 |  79216
  26.       7 | 17:36.17 |  2:42.18 |  79217 |  91384
  27.       8 | 20:18.35 |  2:26.12 |  91385 | 102346
  28.       9 | 22:44.47 |  3:01.10 | 102347 | 115931
  29.      10 | 25:45.57 |  3:40.33 | 115932 | 132464
  30.      11 | 29:26.15 |  2:45.72 | 132465 | 144911
  31.      12 | 32:12.12 |  2:23.35 | 144912 | 155671
  32.      13 | 34:35.47 |  2:30.68 | 155672 | 166989
  33.      14 | 37:06.40 |  3:45.10 | 166990 | 183874
  34.      15 | 40:51.50 |  3:27.12 | 183875 | 199411
  35.      16 | 44:18.62 |  3:15.00 | 199412 | 214036
  36.      17 | 47:33.62 |  2:00.70 | 214037 | 223106
  37.      18 | 49:34.57 |  2:55.60 | 223107 | 236291


  38. 范围状态及错误

  39. 已选择范围

  40.      文件名 F:\古典原抓\ミッシェル・ルグラン楽団/クレバノフ ストリングス - ムード音楽大全集 14\ミッシェル・ルグラン楽団/クレバノフ ストリングス - ムード音楽大全集 14.wav

  41.      峰值电平 96.3 %
  42.      抓取速度 4.1 X
  43.      范围质量 100.0 %
  44.      复制 CRC 8DDEEC9A
  45.      复制成功

  46. 没有错误发生


  47. AccurateRip 摘要

  48. 音轨  1  精确地校准抓取  1)  [9EECC581]  (AR v2)
  49. 音轨  2  精确地校准抓取  1)  [0D820B77]  (AR v2)
  50. 音轨  3  精确地校准抓取  1)  [D56B39E4]  (AR v2)
  51. 音轨  4  精确地校准抓取  1)  [FB3DA1D8]  (AR v2)
  52. 音轨  5  精确地校准抓取  1)  [CD582A9C]  (AR v2)
  53. 音轨  6  精确地校准抓取  1)  [43D78334]  (AR v2)
  54. 音轨  7  精确地校准抓取  1)  [A79A1CAF]  (AR v2)
  55. 音轨  8  精确地校准抓取  1)  [55244036]  (AR v2)
  56. 音轨  9  精确地校准抓取  1)  [C66EABE6]  (AR v2)
  57. 音轨 10  精确地校准抓取  1)  [685ABAAB]  (AR v2)
  58. 音轨 11  精确地校准抓取  1)  [E19D82EE]  (AR v2)
  59. 音轨 12  精确地校准抓取  1)  [54777A38]  (AR v2)
  60. 音轨 13  精确地校准抓取  1)  [ACDF40E2]  (AR v2)
  61. 音轨 14  精确地校准抓取  1)  [0264E742]  (AR v2)
  62. 音轨 15  精确地校准抓取  1)  [CADBAB00]  (AR v2)
  63. 音轨 16  精确地校准抓取  1)  [33FF1258]  (AR v2)
  64. 音轨 17  精确地校准抓取  1)  [25E09D8F]  (AR v2)
  65. 音轨 18  精确地校准抓取  1)  [0C8AA0C7]  (AR v2)

  66. 所有音轨精确校准抓取

  67. 状态报告结尾

  68. ---- CUETools DB Plugin V2.1.6

  69. [CTDB TOCID: zxfRUt5yK2z_34sKgvEv2AtCowo-] disk not present in database
  70. Submit result: 操作超时


  71. ==== 记录校验日志 D42483794FB1FCB6EFE100D4F380C087DEDBB760F614BD49F61FC88C3D4090DB ====
复制代码

评分

参与人数 1音符 +5 炫币 +5 收起 理由
樱樱 + 5 + 5 炫音因你而精彩!

查看全部评分

发表于 2018-1-9 06:38:57 | 显示全部楼层
谢谢版主分享
回复 支持 反对

使用道具 举报

发表于 2018-1-9 14:29:12 | 显示全部楼层
下载试听,谢谢分享!
回复 支持 反对

使用道具 举报

发表于 2018-1-9 21:37:15 | 显示全部楼层
优雅清扬~~非常舒心!!
回复 支持 反对

使用道具 举报

发表于 2018-1-10 05:04:50 | 显示全部楼层
音质很好,谢谢分享。
回复 支持 反对

使用道具 举报

发表于 2018-1-10 14:22:05 | 显示全部楼层
好资源 谢谢分享
回复 支持 反对

使用道具 举报

发表于 2018-1-11 14:14:04 | 显示全部楼层
休息時想聽點jazz
感謝分享
回复 支持 反对

使用道具 举报

发表于 2018-1-11 14:25:51 | 显示全部楼层
非常非常好  谢谢分享
回复 支持 反对

使用道具 举报

发表于 2018-1-11 23:10:50 | 显示全部楼层
试听音质非常好。楼主上传辛苦,谢谢分享!
回复 支持 反对

使用道具 举报

发表于 2018-1-12 00:39:40 | 显示全部楼层
谢谢版主分享
回复 支持 反对

使用道具 举报

发表于 2018-1-12 06:49:19 | 显示全部楼层
爱听楼主的推荐。谢谢楼主。
回复 支持 反对

使用道具 举报

发表于 2018-1-15 01:19:17 | 显示全部楼层
谢谢分享,期待中,喜欢的
回复 支持 反对

使用道具 举报

您需要登录后才可以回帖 登录 | 立即注册

本版积分规则

手机版|炫音音乐论坛 ( 皖ICP备13017420号-3 )皖公网安备 34082502000069号

GMT+8, 2018-11-14 21:29 , Processed in 0.078577 second(s), 17 queries , Gzip On, File On.

Powered by Discuz! X3.4

© 2004-2017 炫音音乐论坛

快速回复 返回顶部 返回列表