查看: 918|回复: 23

[古典音乐] 【原创】日本东京交响乐团-動物の謝肉祭组曲(索尼版)【WAV/百度】

[复制链接]
发表于 2018-1-8 16:45:54 | 显示全部楼层 |阅读模式
CD: ニューヨーク フィルハーモニック - ピーターと狼~楽しい音楽とお話~
      YEAR: 1960

IMG_20160512_0061.jpg
IMG_20160512_0062.jpg
IMG_20160512_0064.jpg

日本东京交响乐团-動物の謝肉祭组曲(索尼版)

01. プロコフィエフ 交響的物語「ピーターと狼」作品67_楽器と主題の紹介    [0:03:12.22]
02. プロコフィエフ 交響的物語「ピーターと狼」作品67_物語    [0:24:05.45]
03. サン=サーンス 組曲「動物の謝肉祭」_プロローグ    [0:01:31.50]
04. サン=サーンス 組曲「動物の謝肉祭」_第1曲 序奏と百獣の王ライオン    [0:02:37.13]
05. サン=サーンス 組曲「動物の謝肉祭」_第2曲 おんどりとめんどり    [0:00:44.55]
06. サン=サーンス 組曲「動物の謝肉祭」_第3曲 ラバ    [0:01:19.45]
07. サン=サーンス 組曲「動物の謝肉祭」_第4曲 かめ    [0:02:22.65]
08. サン=サーンス 組曲「動物の謝肉祭」_第5曲 ぞう    [0:01:18.42]
09. サン=サーンス 組曲「動物の謝肉祭」_第6曲 カンガルー    [0:02:09.33]
10. サン=サーンス 組曲「動物の謝肉祭」_第7曲 水族館    [0:02:52.05]
11. サン=サーンス 組曲「動物の謝肉祭」_第8曲 耳の長い登場人物    [0:00:39.02]
12. サン=サーンス 組曲「動物の謝肉祭」_第9曲 森の奥のカッコウ    [0:02:12.73]
13. サン=サーンス 組曲「動物の謝肉祭」_第10曲 鳥かご    [0:01:26.30]
14. サン=サーンス 組曲「動物の謝肉祭」_第11曲 ピアニスト    [0:03:27.20]
15. サン=サーンス 組曲「動物の謝肉祭」_第12曲 化石    [0:01:53.50]
16. サン=サーンス 組曲「動物の謝肉祭」_第13曲 白鳥    [0:03:20.62]
17. サン=サーンス 組曲「動物の謝肉祭」_第14曲 終曲    [0:01:55.25]

游客,如果您要查看本帖隐藏内容请回复,如果您想免回复、免金币,直接查看内容,请开通炫音VIP




  1. Exact Audio Copy V1.1 from 23. June 2015

  2. EAC 抓取日志文件从11. 十月 2016, 10:46

  3. ニューヨーク フィルハーモニック / ピーターと狼~楽しい音楽とお話~

  4. 使用驱动器  :TSSTcorpCDDVDW SH-224DB   Adapter: 1  ID: 0

  5. 读取模式      : 可靠Secure
  6. 使用精确流     : 是
  7. 清空音频缓存    : 是
  8. 使用 C2 指示器 : 否

  9. 读取偏移校正:               : 6
  10. 读取 Lead-In 和 Lead-Out : 否
  11. 用静音填充抓取中丢失偏移的采样       : 是
  12. 去除首尾静音块               : 否
  13. 在CRC 计算中使用了空样本       : 是
  14. 已用接口                  : Win NT 及 2000 本地 Win32 接口

  15. 所用输出模式: : 内部 WAV 函数
  16. 样本格式    : 44.100 Hz; 16 Bit; 立体声


  17. 已抓取 CD 的 TOC

  18.      音轨 |    起始    |    长度    |  起始扇区  |  结束扇区  
  19.     --------------------------------------------
  20.       1 |  0:00.00 |  3:12.22 |      0 |  14421
  21.       2 |  3:12.22 | 24:05.45 |  14422 | 122841
  22.       3 | 27:17.67 |  1:31.50 | 122842 | 129716
  23.       4 | 28:49.42 |  2:37.13 | 129717 | 141504
  24.       5 | 31:26.55 |  0:44.55 | 141505 | 144859
  25.       6 | 32:11.35 |  1:19.45 | 144860 | 150829
  26.       7 | 33:31.05 |  2:22.65 | 150830 | 161544
  27.       8 | 35:53.70 |  1:18.42 | 161545 | 167436
  28.       9 | 37:12.37 |  2:09.33 | 167437 | 177144
  29.      10 | 39:21.70 |  2:52.05 | 177145 | 190049
  30.      11 | 42:14.00 |  0:39.02 | 190050 | 192976
  31.      12 | 42:53.02 |  2:12.73 | 192977 | 202949
  32.      13 | 45:06.00 |  1:26.30 | 202950 | 209429
  33.      14 | 46:32.30 |  3:27.20 | 209430 | 224974
  34.      15 | 49:59.50 |  1:53.50 | 224975 | 233499
  35.      16 | 51:53.25 |  3:20.62 | 233500 | 248561
  36.      17 | 55:14.12 |  1:55.25 | 248562 | 257211


  37. 范围状态及错误

  38. 已选择范围

  39.      文件名 F:\古典原抓\ニューヨーク フィルハーモニック - ピーターと狼~楽しい音楽とお話~\ニューヨーク フィルハーモニック - ピーターと狼~楽しい音楽とお話~.wav

  40.      峰值电平 71.7 %
  41.      抓取速度 2.9 X
  42.      范围质量 100.0 %
  43.      复制 CRC 4440EC98
  44.      复制成功

  45. 没有错误发生


  46. AccurateRip 摘要

  47. 音轨  1  精确地校准抓取  2)  [02C5E243]  (AR v2)
  48. 音轨  2  精确地校准抓取  2)  [B216BB3E]  (AR v2)
  49. 音轨  3  精确地校准抓取  2)  [D37324BE]  (AR v2)
  50. 音轨  4  精确地校准抓取  2)  [42772CD2]  (AR v2)
  51. 音轨  5  精确地校准抓取  2)  [779D929E]  (AR v2)
  52. 音轨  6  精确地校准抓取  2)  [85509E5D]  (AR v2)
  53. 音轨  7  精确地校准抓取  2)  [CF4560F1]  (AR v2)
  54. 音轨  8  精确地校准抓取  2)  [E0B8A4F3]  (AR v2)
  55. 音轨  9  精确地校准抓取  2)  [ED1B40A6]  (AR v2)
  56. 音轨 10  精确地校准抓取  2)  [162259F3]  (AR v2)
  57. 音轨 11  精确地校准抓取  2)  [087C94B5]  (AR v2)
  58. 音轨 12  精确地校准抓取  2)  [EA0ED06D]  (AR v2)
  59. 音轨 13  精确地校准抓取  2)  [0780F6B2]  (AR v2)
  60. 音轨 14  精确地校准抓取  2)  [AB603B58]  (AR v2)
  61. 音轨 15  精确地校准抓取  2)  [176CA34D]  (AR v2)
  62. 音轨 16  精确地校准抓取  2)  [8955C5E8]  (AR v2)
  63. 音轨 17  精确地校准抓取  2)  [BB89B169]  (AR v2)

  64. 所有音轨精确校准抓取

  65. 状态报告结尾

  66. ---- CUETools DB Plugin V2.1.6

  67. [CTDB TOCID: 08w8BThS6kDjUIIg.9rWXa2WLIA-] found
  68. Submit result: 08w8BThS6kDjUIIg.9rWXa2WLIA- has been confirmed
  69. Track | CTDB Status
  70.   1   | (2/2) Accurately ripped
  71.   2   | (2/2) Accurately ripped
  72.   3   | (2/2) Accurately ripped
  73.   4   | (2/2) Accurately ripped
  74.   5   | (2/2) Accurately ripped
  75.   6   | (2/2) Accurately ripped
  76.   7   | (2/2) Accurately ripped
  77.   8   | (2/2) Accurately ripped
  78.   9   | (2/2) Accurately ripped
  79. 10   | (2/2) Accurately ripped
  80. 11   | (2/2) Accurately ripped
  81. 12   | (2/2) Accurately ripped
  82. 13   | (2/2) Accurately ripped
  83. 14   | (2/2) Accurately ripped
  84. 15   | (2/2) Accurately ripped
  85. 16   | (2/2) Accurately ripped
  86. 17   | (2/2) Accurately ripped


  87. ==== 记录校验日志 3EEF15BAF7ADE87527E1E88BCD570FE5BB54CB5A49D72F8057550B176773E16F ====
复制代码

评分

参与人数 1音符 +5 炫币 +5 收起 理由
樱樱 + 5 + 5 炫音因你而精彩!

查看全部评分

发表于 2018-1-9 09:19:26 | 显示全部楼层
感谢楼主分享!!
回复 支持 反对

使用道具 举报

发表于 2018-1-9 10:49:04 | 显示全部楼层
试听感觉不错!感谢分享。
回复 支持 反对

使用道具 举报

发表于 2018-1-23 19:11:44 | 显示全部楼层
动物音乐?日文看不懂~~~
回复 支持 反对

使用道具 举报

发表于 2018-1-23 23:17:27 | 显示全部楼层
真正洋鬼子的么谢谢
回复 支持 反对

使用道具 举报

 成长值: 6640

发表于 2018-1-29 10:49:09 | 显示全部楼层
感谢楼主分享!!
回复 支持 反对

使用道具 举报

发表于 2018-1-30 06:43:32 | 显示全部楼层
感谢楼主分享!
回复 支持 反对

使用道具 举报

发表于 2018-2-5 07:08:23 | 显示全部楼层
谢谢楼主分享
回复 支持 反对

使用道具 举报

发表于 2018-3-27 08:08:50 | 显示全部楼层
谢谢分享优美的音乐
回复 支持 反对

使用道具 举报

发表于 2018-3-28 23:58:44 | 显示全部楼层
nfkh
动物音乐?日文看不懂~~~
回复 支持 反对

使用道具 举报

发表于 2018-4-2 10:23:47 | 显示全部楼层
感谢楼主分享,不同乐团的演奏!
回复 支持 反对

使用道具 举报

发表于 2018-5-18 17:37:31 | 显示全部楼层
看看    是否    需要   购买  。。。。。。。。。。。。。。。
回复 支持 反对

使用道具 举报

发表于 2018-5-19 08:29:54 | 显示全部楼层
谢谢楼主的分享
回复 支持 反对

使用道具 举报

您需要登录后才可以回帖 登录 | 立即注册

本版积分规则

手机版|炫音音乐论坛 ( 皖ICP备13017420号-3 )皖公网安备 34082502000069号

GMT+8, 2018-9-24 18:21 , Processed in 0.072167 second(s), 14 queries , Gzip On, File On.

Powered by Discuz! X3.4

© 2004-2017 炫音音乐论坛

快速回复 返回顶部 返回列表