查看: 1351|回复: 74

[古典音乐] 【原创】小泽征尔 - 贝多芬田园交响曲【WAV/百度】

  [复制链接]
发表于 2018-1-8 16:49:32 | 显示全部楼层 |阅读模式
カラヤン - ベートーヴェン・交響曲六番「田園」
小泽征尔 - 贝多芬田园交响曲

IMG_20160512_0057.jpg
IMG_20160512_0058.jpg
IMG_20160512_0060.jpg


对自然的赞美以及对多彩的牧歌延伸开来的感情的乐想的《田园》,是一组以巧妙的自然描写的充满着人文主义的主题音乐的交响曲,贝多芬自己对其就有如此的说明“相对于音画而是感情的表现”。小泽征尔带领斋藤纪念乐团,不断提炼出声音,表现出明亮而亲和的演出。
同时录音的还有由丰富声音而急遽演出的《列奥诺拉》序曲第三号。

第六交响曲 F 大调,作品 68 号,《田园》
01. 第一乐章 到达乡郊,复苏轻松的心情   [0:09:01.30]
02. 第二乐章 小河旁边之情景   [0:11:35.60]
03. 第三乐章 乡民们快乐的集会    [0:03:01.00]
04. 第四乐章 暴风雨    [0:03:25.13]
05. 第五乐章 暴风雨过后牧羊人感恩之歌    [0:08:54.57]
06. 序曲レオノーレ    [0:14:41.38]

游客,如果您要查看本帖隐藏内容请回复,如果您想免回复、免金币,直接查看内容,请开通炫音VIP




  1. Exact Audio Copy V1.1 from 23. June 2015

  2. EAC 抓取日志文件从11. 十月 2016, 10:19

  3. カラヤン / ベートーヴェン・交響曲六番「田園」

  4. 使用驱动器  :TSSTcorpCDDVDW SH-224DB   Adapter: 1  ID: 0

  5. 读取模式      : 可靠Secure
  6. 使用精确流     : 是
  7. 清空音频缓存    : 是
  8. 使用 C2 指示器 : 否

  9. 读取偏移校正:               : 6
  10. 读取 Lead-In 和 Lead-Out : 否
  11. 用静音填充抓取中丢失偏移的采样       : 是
  12. 去除首尾静音块               : 否
  13. 在CRC 计算中使用了空样本       : 是
  14. 已用接口                  : Win NT 及 2000 本地 Win32 接口

  15. 所用输出模式: : 内部 WAV 函数
  16. 样本格式    : 44.100 Hz; 16 Bit; 立体声


  17. 已抓取 CD 的 TOC

  18.      音轨 |    起始    |    长度    |  起始扇区  |  结束扇区  
  19.     --------------------------------------------
  20.       1 |  0:00.00 |  9:01.30 |      0 |  40604
  21.       2 |  9:01.30 | 11:35.60 |  40605 |  92789
  22.       3 | 20:37.15 |  3:01.00 |  92790 | 106364
  23.       4 | 23:38.15 |  3:25.13 | 106365 | 121752
  24.       5 | 27:03.28 |  8:54.57 | 121753 | 161859
  25.       6 | 35:58.10 | 14:41.38 | 161860 | 227972


  26. 范围状态及错误

  27. 已选择范围

  28.      文件名 F:\古典原抓\小泽征尔 - ベートーヴェン・交響曲六番「田園」\カラヤン - ベートーヴェン・交響曲六番「田園」.wav

  29.      峰值电平 81.0 %
  30.      抓取速度 4.1 X
  31.      范围质量 100.0 %
  32.      复制 CRC 56991349
  33.      复制成功

  34. 没有错误发生


  35. AccurateRip 摘要

  36. 音轨  1  在数据库中不存在
  37. 音轨  2  在数据库中不存在
  38. 音轨  3  在数据库中不存在
  39. 音轨  4  在数据库中不存在
  40. 音轨  5  在数据库中不存在
  41. 音轨  6  在数据库中不存在

  42. 没有任何音轨在 AccurateRip 数据库中有记录

  43. 状态报告结尾

  44. ---- CUETools DB Plugin V2.1.6

  45. [CTDB TOCID: 9ONDrY.3Vhxr2x.6ioxjA1zV99M-] disk not present in database
  46. Submit result: 请求被中止: 请求已被取消。


  47. ==== 记录校验日志 347EFC2E1D8D8EB38BEB14A12DBCF087D24E713AC13522AACC7A0A94AEF33730 ====
复制代码

评分

参与人数 1音符 +5 炫币 +5 收起 理由
樱樱 + 5 + 5 炫音因你而精彩!

查看全部评分

发表于 2018-1-9 11:26:51 | 显示全部楼层
谢谢楼主分享!!!
回复 支持 反对

使用道具 举报

发表于 2018-1-9 13:30:20 | 显示全部楼层
这个一定要下载,谢谢楼主分享!
回复 支持 反对

使用道具 举报

发表于 2018-1-9 15:11:45 | 显示全部楼层
谢谢楼主分享!!!
回复 支持 反对

使用道具 举报

发表于 2018-1-9 15:23:19 | 显示全部楼层
美樂謝謝樓主發佈好碟
回复 支持 反对

使用道具 举报

发表于 2018-1-9 20:56:02 | 显示全部楼层
好东西啊,小时候听过磁带版
回复 支持 反对

使用道具 举报

发表于 2018-1-18 00:50:43 | 显示全部楼层
谢谢楼主的分享
回复 支持 反对

使用道具 举报

发表于 2018-1-23 19:09:54 | 显示全部楼层
谢谢分享~~~~~~~一代小泽征尔~~~~
回复 支持 反对

使用道具 举报

发表于 2018-1-24 08:49:37 | 显示全部楼层
好  非常非常 喜欢   非常非常感谢
回复 支持 反对

使用道具 举报

发表于 2018-1-24 18:05:13 | 显示全部楼层
下来听一下
回复 支持 反对

使用道具 举报

发表于 2018-1-24 21:18:04 | 显示全部楼层
应该是不要收费的吧?
回复 支持 反对

使用道具 举报

已抛锚 成长值: 880

发表于 2018-1-24 21:27:55 | 显示全部楼层
最优美的旋律,最动人的节奏,最感人的韵味。
回复 支持 反对

使用道具 举报

发表于 2018-1-25 21:07:17 | 显示全部楼层
谢谢楼主分享!!!
回复 支持 反对

使用道具 举报

您需要登录后才可以回帖 登录 | 立即注册

本版积分规则

手机版|炫音音乐论坛 ( 皖ICP备13017420号-3 )皖公网安备 34082502000069号

GMT+8, 2018-6-18 09:44 , Processed in 0.070834 second(s), 29 queries , Gzip On.

Powered by Discuz! X3.4

© 2004-2017 炫音音乐论坛

快速回复 返回顶部 返回列表