查看: 2246|回复: 87

[华语流行] 【自购原抓】李梦瑶 - 执着(1:1母盘直刻版)2017

  [复制链接]
发表于 2018-1-12 22:33:18 | 显示全部楼层 |阅读模式
cover.jpg

专辑名称:执着
专辑艺人:李梦瑶
唱片公司:岗拉美朵唱片
发行时间:2017年9月
资源格式: WAV+CUE

专辑介绍:
李梦瑶 执着》是由岗拉美朵公司为李梦瑶发行的第三张个人HIFI专辑,该专辑收录了摇滚女王田震的经典传唱之作,首首经典,回忆满满。
她的歌曲能带给大众一种向上的新生的希望,以至于到现在,她的歌依然有着相当的吸引力,时代不管怎么变迁,人们对美好的追求永远不会变。
我们《执着》的追求,足以值得您一往情深的守候。
李梦瑶 个人简介:
艺名:梦瑶,身高162cm,1992年12月出生于成都,2016年毕业于四川师范大学音乐学院。HI-FI界新秀,青年女歌手,她的声音沙哑、魅惑、磁性中藏着一股小野性。
2016年发行了首-张个人专辑《撕爱》,全新多元素曲风的创作与演绎,独树一帜,一夜间各大主流音乐媒体竞相报道,被誉为“发烧界值得期待的好声音”。

专辑曲目:
01.怕黑的女人
02.月牙泉
03.三十岁的女人
04.风雨彩虹铿锵玫瑰
05.靠近我
06.干杯,朋友
07.自由自在
08.谁为我停留
09.水姻缘
10.爱不后悔
11.野花
12.执着

下载链接:
购买主题 已有 70 人购买  本主题需向作者支付 15 金币 才能浏览
 楼主| 发表于 2018-1-12 22:34:24 | 显示全部楼层
Exact Audio Copy V1.3 from 2. September 2016

EAC 抓取日志文件从11. 一月 2018, 0:17

李梦瑶 / 执着(1:1母盘直刻)

使用驱动器  :YAMAHA  CRW-F1E   Adapter: 1  ID: 0

读取模式      : 可靠Secure
使用精确流     : 是
清空音频缓存    : 是
使用 C2 指示器 : 否

读取偏移校正:               : 733
读取 Lead-In 和 Lead-Out : 否
用静音填充抓取中丢失偏移的采样       : 是
去除首尾静音块               : 否
在CRC 计算中使用了空样本       : 是
已用接口                  : Win NT 及 2000 本地 Win32 接口

所用输出模式: : 内部 WAV 函数
样本格式    : 44.100 Hz; 16 Bit; 立体声


已抓取 CD 的 TOC

     音轨 |    起始    |    长度    |  起始扇区  |  结束扇区  
    --------------------------------------------
      1 |  0:00.00 |  4:44.00 |      0 |  21299
      2 |  4:44.00 |  3:35.50 |  21300 |  37474
      3 |  8:19.50 |  5:36.25 |  37475 |  62699
      4 | 13:56.00 |  4:17.00 |  62700 |  81974
      5 | 18:13.00 |  4:15.25 |  81975 | 101124
      6 | 22:28.25 |  3:52.00 | 101125 | 118524
      7 | 26:20.25 |  5:01.00 | 118525 | 141099
      8 | 31:21.25 |  4:15.50 | 141100 | 160274
      9 | 35:37.00 |  4:30.50 | 160275 | 180574
     10 | 40:07.50 |  4:29.00 | 180575 | 200749
     11 | 44:36.50 |  3:49.25 | 200750 | 217949
     12 | 48:26.00 |  3:51.53 | 217950 | 235327


范围状态及错误

已选择范围

     文件名 C:\Users\Administrator\Desktop\李梦瑶 - 执着(1-1母盘直刻).wav

     峰值电平 100.0 %
     抓取速度 8.3 X
     范围质量 100.0 %
     复制 CRC 0E8FA41D
     复制成功

没有错误发生
back.jpg
回复 支持 反对

使用道具 举报

 楼主| 发表于 2018-1-12 22:36:24 | 显示全部楼层
自购母带直刻版,雅马哈F1抓轨,自扫图片,介绍来自于网络。可与其他版本试听比较,如若喜欢请购买正版。
回复 支持 反对

使用道具 举报

发表于 2018-1-13 11:58:37 | 显示全部楼层
01.怕黑的女人

http://bbs.musicool.cn/thread-646009-1-1.html

http://bbs.musicool.cn/thread-644964-1-1.html

饭店门口摆粥滩

回复 支持 反对

使用道具 举报

发表于 2018-1-13 12:16:19 | 显示全部楼层
谢谢楼主分享!
回复 支持 反对

使用道具 举报

发表于 2018-1-15 06:17:25 | 显示全部楼层
如若喜欢请购买正版。
回复 支持 反对

使用道具 举报

发表于 2018-1-15 07:20:01 | 显示全部楼层
感谢分享好音乐
回复 支持 反对

使用道具 举报

发表于 2018-1-15 12:39:23 | 显示全部楼层
价格合适谢谢分享
回复 支持 反对

使用道具 举报

发表于 2018-1-15 16:35:56 | 显示全部楼层
和正版低速原抓 声音沙哑魅惑磁性 李梦瑶《执着 DSD》对比一下到底谁好

点评

到底谁好?  发表于 2018-1-16 21:18
回复 支持 反对

使用道具 举报

发表于 2018-1-16 10:34:22 | 显示全部楼层
全新多元素曲风的创作与演绎
回复 支持 反对

使用道具 举报

 成长值: 4420

发表于 2018-1-16 11:21:23 | 显示全部楼层
感谢分享好音乐
回复 支持 反对

使用道具 举报

发表于 2018-1-16 11:44:13 | 显示全部楼层
fesrgfhfdgdsfgsd

评分

参与人数 1音符 -2 炫币 -2 收起 理由
樱樱 -2 -2 下不为例

查看全部评分

回复 支持 反对

使用道具 举报

发表于 2018-1-16 14:13:39 | 显示全部楼层
音质不错,收下了,谢楼主分享
回复 支持 反对

使用道具 举报

您需要登录后才可以回帖 登录 | 立即注册

本版积分规则

手机版|Archiver|炫音音乐论坛 ( 皖ICP备13017420号-3 )皖公网安备 34082502000069号

GMT+8, 2018-5-26 04:24 , Processed in 0.061054 second(s), 22 queries , Gzip On, WinCache On.

Powered by Discuz! X3.4

© 2004-2017 炫音音乐论坛

快速回复 返回顶部 返回列表