查看: 3533|回复: 174

[发烧试音] 复古和经典的象征,签名版姚樱格最新专辑《恋.上海》【WAV/百度云】

  [复制链接]
发表于 2018-4-24 08:22:02 | 显示全部楼层 |阅读模式
声明:该专辑仅供本论坛内部学习交流使用,若喜欢专辑的音乐,请支持正版CD。


Scan1.JPG

Scan10001.JPG

Scan10015.JPG





专辑名称: 恋.上海
专辑艺人:姚璎格
唱片类型:HQCD
唱片公司:广东音像出版社
发行时间:2018
ISBN:978-7-7984-1512-4
资源品质:WAV+CUE


  姚璎格不是歌手出生,而是一个地道的服装设计师,她是从服装设计师行业走到歌手的。
  有人说,她的嗓音温暖醇厚,如陈年的女儿红般令人迷醉,听她唱歌,仿如看到她的巧手编出的片片霓裳彩衣。一首花好月圆在此刻送给正在收听节目的你,祝福天下所有的有情人,幸福合美。在她张专辑里,她一改以往的哀怨凄切,以充满阳光的明媚唱出了《茉莉花》和《花好月圆》,当然还有一首歌,我们绝对不能遗忘,这首歌《在那遥远的地方》她的歌声让你清晰地看到蝴蝶翅膀背面的花纹,那是美丽和哀愁的交错孽生。姚璎格的女中音醇厚绵密,耳边这首歌的"男歌女唱"更是如鱼得水,男人的情歌由她唱来,更加凸显女声的清雅飘逸和缠绵柔情,让我们细细咀嚼,这充满香味的歌声。



专辑简介

    姚樱格用她独有的音色娓娓道来的是当代人和上个世纪初人们共通的一种情怀;一种对美好生活的向往和眷恋;一种对寂寞如雪的人生凄美的叹息;一种横跨百年属于华夏儿女共同的心灵印记;更是一种独有的回忆。
早在《女儿红》发行后我们就一直计划做一张关于老上海的唱片,起因是格格的父亲,一个上海“老克勒”的故乡情怀,自幼姚爸爸就给姚家姐妹哼唱各种上海老歌,格格记忆中的画面就是:坐在四川北路旧居的楼上,听父亲和奶奶哼唱那些美丽的旋律、讲着那些老上海明星的故事,度过在上海的童年。历时五个月紧张的制作,这张姚樱格《恋·上海》专辑终于赶在2018上海SIAV国际高级HIFI演示会前制作完成,并将在13号开幕之际和大家见面。
     姚樱格,一个黄浦江水哺育而又成长在黄河岸边的女子,虽然有北方姑娘的直率爽朗,但骨髓里依旧充满上海女子的优雅精致,就像一朵质朴脱俗的百合,纵然在广州这个随性的城市一呆十余年却依旧保持着上海女子独有的那份生活情致。听·姚樱格,听她的浅吟轻唱;读·姚樱格,读她用歌声娓娓道来属于她的平淡、恬静和极致,而这张《恋·上海》听到的则会是一种情怀,对故乡的一抹回忆;追叙的不仅仅是自己的童年,更是骨子里那份挥不去的上海情结。
     上海老歌是指老上海的唱片公司在1949年前出版的一批歌曲,这些歌曲飘摇着浓浓的旧上海十里洋场的风情,如同泛黄的书页般带着往日的温馨,传递着浓郁的抒情风味;也代表着中国最早期的流行歌曲的诞生。它们从旧上海的留声机中走出来,如今已经成为了宝贵的历史文化遗产。上海老歌一开始是为电影而生的,这些美妙的旋律不仅回旋在旧上海的电影里面,它们与现在的时尚仍然显得那样合拍,在低调华丽的声音下流动的是永远对精致优雅的追求,以及气质女性对生活点点滴滴的体会。老上海是复古和经典的象征,连音乐都是浅吟低唱、千回百转中带出万般风情,如同画报上穿着旗袍的上海时髦小姐,永远妆容精致、身型娇俏,满目低调的奢华。

01、魂萦旧梦
02、如果没有你
03、明月千里寄相思
04、玫瑰玫瑰我爱你
05、梦中人
06、永远的微笑
07、重逢
08、天涯歌女
09、夜来香
10、我有一段情
11、何日君再来
12、夜上海     



Exact Audio Copy V1.2 from 12. August 2016

EAC 抓取日志文件从18. 四月 2018, 19:46

姚璎格 / 恋

使用驱动器  :TEAC    CD-W540E   Adapter: 1  ID: 0

读取模式      : 可靠Secure
使用精确流     : 是
清空音频缓存    : 是
使用 C2 指示器 : 否

读取偏移校正:               : 686
读取 Lead-In 和 Lead-Out : 否
用静音填充抓取中丢失偏移的采样       : 是
去除首尾静音块               : 否
在CRC 计算中使用了空样本       : 是
已用接口                  : Win NT 及 2000 本地 Win32 接口

所用输出模式: : 内部 WAV 函数
样本格式    : 44.100 Hz; 16 Bit; 立体声


已抓取 CD 的 TOC

     音轨 |    起始    |    长度    |  起始扇区  |  结束扇区  
    --------------------------------------------
      1 |  0:00.00 |  3:15.11 |      0 |  14635
      2 |  3:15.11 |  3:01.33 |  14636 |  28243
      3 |  6:16.44 |  3:39.11 |  28244 |  44679
      4 |  9:55.55 |  3:31.54 |  44680 |  60558
      5 | 13:27.34 |  4:01.09 |  60559 |  78642
      6 | 17:28.43 |  4:02.43 |  78643 |  96835
      7 | 21:31.11 |  3:32.68 |  96836 | 112803
      8 | 25:04.04 |  3:26.34 | 112804 | 128287
      9 | 28:30.38 |  3:50.36 | 128288 | 145573
     10 | 32:20.74 |  4:34.60 | 145574 | 166183
     11 | 36:55.59 |  3:41.23 | 166184 | 182781
     12 | 40:37.07 |  3:21.45 | 182782 | 197901


范围状态及错误

已选择范围

     文件名 G:\无损音乐\自抓轨CD\姚璎格《恋》\姚璎格 - 恋.wav

     峰值电平 100.0 %
     抓取速度 7.6 X
     范围质量 100.0 %
     复制 CRC 5789B9CC
     复制成功

没有错误发生


购买主题 已有 130 人购买  本主题需向作者支付 3 金币 才能浏览,如果您想免回复、免金币,直接查看内容,请开通炫音VIP

 成长值: 2275

发表于 2018-4-24 16:47:04 | 显示全部楼层
听听新人发翻唱,别有滋味!
回复 支持 1 反对 0

使用道具 举报

 楼主| 发表于 2018-4-24 08:23:54 | 显示全部楼层
REM DISCID A50A4E0C
REM COMMENT "ExactAudioCopy v1.2"
PERFORMER "姚璎格"
TITLE "恋"
REM COMPOSER ""
FILE "姚璎格 - 恋.wav" WAVE
  TRACK 01 AUDIO
    TITLE "魂索旧梦"
    PERFORMER "姚璎格"
    REM COMPOSER ""
    INDEX 01 00:00:00
  TRACK 02 AUDIO
    TITLE "如果没有你"
    PERFORMER "姚璎格"
    REM COMPOSER ""
    INDEX 00 03:13:13
    INDEX 01 03:15:11
  TRACK 03 AUDIO
    TITLE "明月千里寄相思"
    PERFORMER "姚璎格"
    REM COMPOSER ""
    INDEX 00 06:14:45
    INDEX 01 06:16:44
  TRACK 04 AUDIO
    TITLE "玫瑰玫瑰我爱你"
    PERFORMER "姚璎格"
    REM COMPOSER ""
    INDEX 00 09:53:56
    INDEX 01 09:55:55
  TRACK 05 AUDIO
    TITLE "梦中人"
    PERFORMER "姚璎格"
    REM COMPOSER ""
    INDEX 00 13:25:36
    INDEX 01 13:27:34
  TRACK 06 AUDIO
    TITLE "永远的微笑"
    PERFORMER "姚璎格"
    REM COMPOSER ""
    INDEX 00 17:26:45
    INDEX 01 17:28:43
  TRACK 07 AUDIO
    TITLE "重逢"
    PERFORMER "姚璎格"
    REM COMPOSER ""
    INDEX 00 21:29:12
    INDEX 01 21:31:11
  TRACK 08 AUDIO
    TITLE "天涯歌女"
    PERFORMER "姚璎格"
    REM COMPOSER ""
    INDEX 00 25:02:05
    INDEX 01 25:04:04
  TRACK 09 AUDIO
    TITLE "夜来香"
    PERFORMER "姚璎格"
    REM COMPOSER ""
    INDEX 00 28:28:39
    INDEX 01 28:30:38
  TRACK 10 AUDIO
    TITLE "我有一段情"
    PERFORMER "姚璎格"
    REM COMPOSER ""
    INDEX 00 32:19:00
    INDEX 01 32:20:74
  TRACK 11 AUDIO
    TITLE "何日君再来"
    PERFORMER "姚璎格"
    REM COMPOSER ""
    INDEX 00 36:53:60
    INDEX 01 36:55:59
  TRACK 12 AUDIO
    TITLE "夜上海"
    PERFORMER "姚璎格"
    REM COMPOSER ""
    INDEX 00 40:35:08
    INDEX 01 40:37:07
回复 支持 反对

使用道具 举报

发表于 2018-4-24 14:04:47 | 显示全部楼层
12:夜上海 -姚樱格

(特别上传320k敬赠楼主)


回复 支持 反对

使用道具 举报

发表于 2018-4-24 15:45:43 | 显示全部楼层
谢谢楼主分享!
回复 支持 反对

使用道具 举报

发表于 2018-4-24 16:33:11 | 显示全部楼层
旧歌新唱,谢谢兄弟!!
回复 支持 反对

使用道具 举报

 楼主| 发表于 2018-4-25 09:42:17 | 显示全部楼层
樱樱 发表于 2018-4-24 14:04
12:夜上海 -姚樱格   (特别上传320k敬赠楼主)

感谢论坛督察的支持!
上传试听,我一直没学会,不懂怎么操作
回复 支持 反对

使用道具 举报

发表于 2018-4-25 10:28:04 | 显示全部楼层
谢谢楼主分享
回复 支持 反对

使用道具 举报

发表于 2018-4-25 10:51:33 | 显示全部楼层
好碟必须支持一个。
回复 支持 反对

使用道具 举报

发表于 2018-4-25 20:35:21 | 显示全部楼层
感谢楼主分享
回复 支持 反对

使用道具 举报

发表于 2018-4-25 21:20:51 | 显示全部楼层
她声音不错的, 出碟有点勤了
回复 支持 反对

使用道具 举报

发表于 2018-4-25 22:10:04 | 显示全部楼层
喜欢姚璎格那独特的嗓音
回复 支持 反对

使用道具 举报

发表于 2018-4-26 10:36:31 | 显示全部楼层
谢谢楼主分享
回复 支持 反对

使用道具 举报

发表于 2018-4-26 15:20:54 | 显示全部楼层
别有滋味 谢谢楼主分享
回复 支持 反对

使用道具 举报

发表于 2018-4-26 15:30:31 | 显示全部楼层
谢楼主分享!
回复 支持 反对

使用道具 举报

您需要登录后才可以回帖 登录 | 立即注册

本版积分规则

手机版|炫音音乐论坛 ( 皖ICP备13017420号-3 )皖公网安备 34082502000069号

GMT+8, 2018-12-12 07:03 , Processed in 0.073414 second(s), 19 queries , Gzip On, File On.

Powered by Discuz! X3.4

© 2004-2017 炫音音乐论坛

快速回复 返回顶部 返回列表