查看: 1196|回复: 172

[华语流行] 【原创】谭艳 - 等爱 DSD【WAV/百度】

  [复制链接]
发表于 2018-10-29 17:42:29 | 显示全部楼层 |阅读模式
专辑名称:等爱 DSD
专辑艺人:谭艳
发行公司:威扬文化
出版公司:广东嘉应音像出版有限公司
ISBN:978-7-88541-885-4
发行时间:2014年11月18日
音乐格式:WAV+CUE

IMG_20181028_0002.jpg

专辑介绍

谭艳最新专辑 《等爱》历时一年精心制作 ,魅力烟嗓她的歌声有种与
之俱来的感染力,声线柔美微沙哑但张力十足,演唱技巧更是一流,她
所演绎的每一首歌曲感情完美融入,跌宕起伏,让所有爱音乐的人们瞬
间记住她的声音。
谭艳,用她独特的烟嗓,叙述看似平淡无奇的生活爱情,午夜梦回时,听
着她的歌,歌里的故事像面镜子,倒映着自己的故事,或许是回忆,又或
许是她的故事。往事一幕幕,一些人,一些事,注定尘封在心底某一处,
在未来的某一天遇见某一个人,才发现以前所有的好与坏都是为了遇见更
好的自己或是他。所以始终相信岁月不会辜负等待你的我。

专辑曲目

01. 完成不了的爱    [0:04:03.05]
02. 绝口不提爱你    [0:04:59.07]
03. 最后一次说爱你    [0:04:21.14]
04. 像风一样自由    [0:03:48.13]
05. 你就是我唯一的爱    [0:05:08.39]
06. Don T Break My Hear    [0:04:16.44]
07. 伤心的歌    [0:04:40.57]
08. 祈求    [0:04:48.45]
09. 忘记你还需要多久    [0:03:41.26]
10. 沉沙    [0:03:45.06]
11. 少年狂    [0:04:57.66]
12. 别爱我    [0:04:37.12]
13. 无地自容    [0:05:35.16]

游客,如果您要查看本帖隐藏内容请回复,如果您想免回复、免金币,直接查看内容,请开通炫音VIP




  1. Exact Audio Copy V1.1 from 23. June 2015

  2. EAC 抓取日志文件从28. 十月 2018, 17:34

  3. 谭艳 / 等爱 DSD

  4. 使用驱动器  :TSSTcorpCDDVDW SH-224DB   Adapter: 1  ID: 0

  5. 读取模式      : 可靠Secure
  6. 使用精确流     : 是
  7. 清空音频缓存    : 是
  8. 使用 C2 指示器 : 否

  9. 读取偏移校正:               : 6
  10. 读取 Lead-In 和 Lead-Out : 否
  11. 用静音填充抓取中丢失偏移的采样       : 是
  12. 去除首尾静音块               : 否
  13. 在CRC 计算中使用了空样本       : 是
  14. 已用接口                  : Win NT 及 2000 本地 Win32 接口

  15. 所用输出模式: : 内部 WAV 函数
  16. 样本格式    : 44.100 Hz; 16 Bit; 立体声


  17. 已抓取 CD 的 TOC

  18.      音轨 |    起始    |    长度    |  起始扇区  |  结束扇区  
  19.     --------------------------------------------
  20.       1 |  0:00.00 |  4:03.05 |      0 |  18229
  21.       2 |  4:03.05 |  4:59.07 |  18230 |  40661
  22.       3 |  9:02.12 |  4:21.14 |  40662 |  60250
  23.       4 | 13:23.26 |  3:48.13 |  60251 |  77363
  24.       5 | 17:11.39 |  5:08.39 |  77364 | 100502
  25.       6 | 22:20.03 |  4:16.44 | 100503 | 119746
  26.       7 | 26:36.47 |  4:40.57 | 119747 | 140803
  27.       8 | 31:17.29 |  4:48.45 | 140804 | 162448
  28.       9 | 36:05.74 |  3:41.26 | 162449 | 179049
  29.      10 | 39:47.25 |  3:45.06 | 179050 | 195930
  30.      11 | 43:32.31 |  4:57.66 | 195931 | 218271
  31.      12 | 48:30.22 |  4:37.12 | 218272 | 239058
  32.      13 | 53:07.34 |  5:35.16 | 239059 | 264199


  33. 范围状态及错误

  34. 已选择范围

  35.      文件名 F:\华语\谭艳 - 等爱DSD\谭艳 - 等爱 DSD.wav

  36.      峰值电平 100.0 %
  37.      抓取速度 3.0 X
  38.      范围质量 100.0 %
  39.      复制 CRC AAA7C85B
  40.      复制成功

  41. 没有错误发生


  42. AccurateRip 摘要

  43. 音轨  1  精确地校准抓取  2)  [A2512A93]  (AR v2)
  44. 音轨  2  精确地校准抓取  2)  [BC57E082]  (AR v2)
  45. 音轨  3  精确地校准抓取  2)  [CC15383A]  (AR v2)
  46. 音轨  4  精确地校准抓取  2)  [7319FDAF]  (AR v2)
  47. 音轨  5  精确地校准抓取  2)  [79DE5F8D]  (AR v2)
  48. 音轨  6  精确地校准抓取  2)  [931F1457]  (AR v2)
  49. 音轨  7  精确地校准抓取  2)  [E09A7A7C]  (AR v2)
  50. 音轨  8  精确地校准抓取  2)  [CEDC1C61]  (AR v2)
  51. 音轨  9  精确地校准抓取  2)  [C159FE6E]  (AR v2)
  52. 音轨 10  精确地校准抓取  2)  [6CBDCEBF]  (AR v2)
  53. 音轨 11  精确地校准抓取  1)  [F6D53F03]  (AR v2)
  54. 音轨 12  精确地校准抓取  1)  [7BC28199]  (AR v2)
  55. 音轨 13  精确地校准抓取  1)  [03F39FBB]  (AR v2)

  56. 所有音轨精确校准抓取

  57. 状态报告结尾

  58. ---- CUETools DB Plugin V2.1.6

  59. [CTDB TOCID: KtlPIOmWhCU2A0zVLT0HgXyrrJQ-] found
  60. Submit result: already submitted
  61. Track | CTDB Status
  62.   1   | (35/38) Accurately ripped
  63.   2   | (35/38) Accurately ripped
  64.   3   | (35/38) Accurately ripped
  65.   4   | (35/38) Accurately ripped
  66.   5   | (35/38) Accurately ripped
  67.   6   | (36/38) Accurately ripped
  68.   7   | (36/38) Accurately ripped
  69.   8   | (36/38) Accurately ripped
  70.   9   | (36/38) Accurately ripped
  71. 10   | (35/38) Accurately ripped
  72. 11   | (36/38) Accurately ripped
  73. 12   | (36/38) Accurately ripped
  74. 13   | (36/38) Accurately ripped


  75. ==== 记录校验日志 6DEB1BD7136D4F0F210CD5B5542B66F492A6CE7EA61F9EC36FE5CCFD7EDFD9CD ====
复制代码

发表于 2018-10-31 12:09:07 | 显示全部楼层
感谢版主分享.
回复 支持 0 反对 1

使用道具 举报

发表于 2018-10-31 05:27:37 | 显示全部楼层
感谢版主分享.
回复 支持 反对

使用道具 举报

发表于 2018-10-31 07:17:07 | 显示全部楼层
感谢楼主的分享
回复 支持 反对

使用道具 举报

发表于 2018-10-31 07:18:12 | 显示全部楼层
像风一样自由谢楼主分享
回复 支持 反对

使用道具 举报

发表于 2018-10-31 07:37:53 | 显示全部楼层
谢谢楼主分享!!!
回复 支持 反对

使用道具 举报

发表于 2018-10-31 08:03:20 | 显示全部楼层
感谢楼主的分享
回复 支持 反对

使用道具 举报

发表于 2018-10-31 08:04:52 | 显示全部楼层
谢谢楼主分享
回复 支持 反对

使用道具 举报

发表于 2018-10-31 08:48:44 | 显示全部楼层
谢谢分享,很喜欢
回复 支持 反对

使用道具 举报

发表于 2018-10-31 10:24:34 | 显示全部楼层
支持 谢谢分享下载收藏非常喜欢
回复 支持 反对

使用道具 举报

发表于 2018-10-31 10:32:26 | 显示全部楼层
录制辛苦了 谢谢分享
回复 支持 反对

使用道具 举报

发表于 2018-10-31 11:44:12 | 显示全部楼层
谢谢版主分享.
回复 支持 反对

使用道具 举报

发表于 2018-10-31 11:45:18 | 显示全部楼层

感谢楼主的分享
回复 支持 反对

使用道具 举报

您需要登录后才可以回帖 登录 | 立即注册

本版积分规则

手机版|炫音音乐论坛 ( 皖ICP备13017420号-3 )皖公网安备 34082502000069号

GMT+8, 2019-1-24 12:53 , Processed in 0.079909 second(s), 23 queries , Gzip On.

Powered by Discuz! X3.4

© 2004-2017 炫音音乐论坛

快速回复 返回顶部 返回列表