查看: 3672|回复: 178

[华语流行] 低速原版抓轨 韩宝仪《情歌2》[WAV/百度云]

  [复制链接]
发表于 2018-11-2 14:40:00 | 显示全部楼层 |阅读模式
本帖最后由 yyh666328 于 2018-11-2 15:56 编辑

扫描10020.JPG 扫描10021.JPG 扫描10014.JPG 扫描10024.JPG 扫描10023.JPG


专辑名称:  情歌2
专辑艺人:  韩宝仪
音乐类型:  HIFI流行
唱片公司:孔雀廊影音电器有限公司
    I S R C:CN-F29-02-375-00/A.J6


专辑简介:

音色纯净,珠圆玉润,唱腔自然,吐字清晰,歌声细致深透,荡气回肠。我们要是静下心来慢慢的品味,就会发现韩宝仪的声音才称得上是最优美的天籁之音。韩宝仪的声音甜美、深情、温柔,特别的多愁善感。

曲目:

CD3:
01  爱你一万年
   
02  酒醉的探戈
   
03  不如归去
   
04  冬恋
   
05  说声对不起
   
06  到底爱我不爱
   
07  夜空
   
08  三年
   
09  梦难留
   
10  你曾经爱过我
   
11  谁能禁止我的爱
   
12  滴滴眼泪都是爱
   
13  海韵


CD4:
01  永远的爱
   
02  你是否还记得
   
03  午夜梦回时
   
04  人儿不能留
   
05  维忘初恋的情人
   
06  恨你不回头
   
07  又是细雨
   
08  泪的小雨
   
09  往事只能回味
   
10  誓言
   
11  夕阳山外山
   
12  只要为你活一天
   
13  你怎么说
   
14何日君再来


游客,如果您要查看本帖隐藏内容请回复,如果您想免回复、免金币,直接查看内容,请开通炫音VIP







   
扫描10023.JPG
扫描10024.JPG
扫描10014.JPG
扫描10021.JPG
扫描10020.JPG

点评

要静下心来慢慢的品味不错的老歌  发表于 2019-2-9 12:00

评分

参与人数 2音符 +10 炫币 +5 金币 +5 收起 理由
樱樱 + 5 + 5
wufeng + 5 炫音因你而精彩!

查看全部评分

发表于 2018-11-2 15:45:12 | 显示全部楼层
本帖最后由 樱樱 于 2019-5-3 14:37 编辑

回复 支持 反对

使用道具 举报

 楼主| 发表于 2018-11-2 15:58:14 | 显示全部楼层
Exact Audio Copy V1.0 beta 3 from 29. August 2011

EAC 抓取日志文件从2. 十一月 2018, 12:43

韩宝仪 / 情歌2

使用驱动器  :TEAC    CD-W540E   Adapter: 1  ID: 0

读取模式      : 可靠Secure
使用精确流     : 是
清空音频缓存    : 是
使用 C2 指示器 : 是

读取偏移校正:               : 0
读取 Lead-In 和 Lead-Out : 否
用静音填充抓取中丢失偏移的采样       : 是
去除首尾静音块               : 否
在CRC 计算中使用了空样本       : 是
已用接口                  : Win NT 及 2000 本地 Win32 接口

所用输出模式: : 内部 WAV 函数
样本格式    : 44.100 Hz; 16 Bit; 立体声


已抓取 CD 的 TOC

     音轨 |    起始    |    长度    |  起始扇区  |  结束扇区  
    --------------------------------------------
      1 |  0:00.00 |  3:12.08 |      0 |  14407
      2 |  3:12.08 |  3:39.54 |  14408 |  30886
      3 |  6:51.62 |  3:08.43 |  30887 |  45029
      4 | 10:00.30 |  3:00.50 |  45030 |  58579
      5 | 13:01.05 |  3:40.59 |  58580 |  75138
      6 | 16:41.64 |  4:25.63 |  75139 |  95076
      7 | 21:07.52 |  3:08.16 |  95077 | 109192
      8 | 24:15.68 |  3:30.13 | 109193 | 124955
      9 | 27:46.06 |  3:29.16 | 124956 | 140646
     10 | 31:15.22 |  3:47.31 | 140647 | 157702
     11 | 35:02.53 |  3:11.70 | 157703 | 172097
     12 | 38:14.48 |  3:52.40 | 172098 | 189537
     13 | 42:07.13 |  3:16.08 | 189538 | 204245
     14 | 45:23.21 |  3:35.05 | 204246 | 220375


范围状态及错误

已选择范围

     文件名 E:\无损音乐\自抓轨CD\韩宝仪《情歌2》\CD1\韩宝仪 - 情歌2.wav

     峰值电平 88.5 %
     抓取速度 11.2 X
     范围质量 100.0 %
     复制 CRC 29BD32AF
     复制成功

没有错误发生

状态报告结尾
回复 支持 反对

使用道具 举报

 楼主| 发表于 2018-11-2 15:58:35 | 显示全部楼层
Exact Audio Copy V1.0 beta 3 from 29. August 2011

EAC 抓取日志文件从2. 十一月 2018, 13:05

韩宝仪 / 情歌2

使用驱动器  :TEAC    CD-W540E   Adapter: 1  ID: 0

读取模式      : 可靠Secure
使用精确流     : 是
清空音频缓存    : 是
使用 C2 指示器 : 是

读取偏移校正:               : 0
读取 Lead-In 和 Lead-Out : 否
用静音填充抓取中丢失偏移的采样       : 是
去除首尾静音块               : 否
在CRC 计算中使用了空样本       : 是
已用接口                  : Win NT 及 2000 本地 Win32 接口

所用输出模式: : 内部 WAV 函数
样本格式    : 44.100 Hz; 16 Bit; 立体声


已抓取 CD 的 TOC

     音轨 |    起始    |    长度    |  起始扇区  |  结束扇区  
    --------------------------------------------
      1 |  0:00.00 |  4:09.24 |      0 |  18698
      2 |  4:09.24 |  3:18.65 |  18699 |  33613
      3 |  7:28.14 |  3:54.29 |  33614 |  51192
      4 | 11:22.43 |  3:53.47 |  51193 |  68714
      5 | 15:16.15 |  3:03.45 |  68715 |  82484
      6 | 18:19.60 |  3:54.65 |  82485 | 100099
      7 | 22:14.50 |  4:29.12 | 100100 | 120286
      8 | 26:43.62 |  3:40.07 | 120287 | 136793
      9 | 30:23.69 |  3:36.49 | 136794 | 153042
     10 | 34:00.43 |  3:57.20 | 153043 | 170837
     11 | 37:57.63 |  2:52.20 | 170838 | 183757
     12 | 40:50.08 |  3:36.68 | 183758 | 200025
     13 | 44:27.01 |  3:15.49 | 200026 | 214699
     14 | 47:42.50 |  5:03.73 | 214700 | 237497


范围状态及错误

已选择范围

     文件名 E:\无损音乐\自抓轨CD\韩宝仪《情歌2》\CD2\韩宝仪 - 情歌2.wav

     峰值电平 88.5 %
     抓取速度 11.4 X
     范围质量 100.0 %
     复制 CRC E9F8936D
     复制成功
回复 支持 反对

使用道具 举报

 成长值: 4600

发表于 2018-11-4 00:33:28 | 显示全部楼层
感谢分享经典好唱片
回复 支持 反对

使用道具 举报

发表于 2018-11-4 15:53:13 | 显示全部楼层
好听的音乐谢谢版主分享,经典!
回复 支持 反对

使用道具 举报

发表于 2018-11-5 07:41:08 | 显示全部楼层
经典的情歌令人难忘~~
回复 支持 反对

使用道具 举报

发表于 2018-11-5 11:18:29 | 显示全部楼层
谢谢楼主整理的慢抓资源
回复 支持 反对

使用道具 举报

发表于 2018-11-5 12:26:22 | 显示全部楼层
谢谢楼主整理的慢抓资源
回复 支持 反对

使用道具 举报

发表于 2018-11-5 19:55:34 | 显示全部楼层
谢谢分享韩宝仪4CD
回复 支持 反对

使用道具 举报

发表于 2018-11-6 20:58:34 | 显示全部楼层
感谢分享辛苦了
回复 支持 反对

使用道具 举报

发表于 2018-11-7 13:55:50 | 显示全部楼层

好听的音乐谢谢版主分享,经典!
回复 支持 反对

使用道具 举报

发表于 2018-11-7 21:07:34 | 显示全部楼层
谢谢分享,下载收藏
回复 支持 反对

使用道具 举报

发表于 2018-11-8 07:12:11 | 显示全部楼层
韩宝仪《情歌2
回复 支持 反对

使用道具 举报

您需要登录后才可以回帖 登录 | 立即注册

本版积分规则

手机版|炫音音乐论坛 ( 皖ICP备13017420号-3 )皖公网安备 34082502000069号

GMT+8, 2019-6-27 10:53 , Processed in 0.082284 second(s), 26 queries , Gzip On.

Powered by Discuz! X3.4

© 2004-2017 炫音音乐论坛

快速回复 返回顶部 返回列表