查看: 197|回复: 12

[发烧试音] 【原创】Various Artists - The Voice Of ELAC【WAV/百度】

[复制链接]
发表于 2018-11-2 20:58:25 | 显示全部楼层 |阅读模式
专辑名称:The Voice Of ELAC
专辑艺人:Various Artists
唱片公司:inakustik
唱片编号:INAK7802CD
发行时间:2015年
资源类型:WAV/CUE/LOG

IMG_20181102_0030.jpg
IMG_20181102_0031.jpg
IMG_20181102_0032.jpg

专辑介绍

德国原音+德国音箱名牌ELAC(意力)
联手塑造出一张主题明确、音效突出的鑑听必然之选
完全德国製造 Made In Germany

Description : 以专门製作高质素音箱见称的”ELAC(意力)”于1926年在德国的基尔(Kiel)成立,有接近90年的长久历史,是一间勇于创新,走进时代尖端的音响器材设计和製造公司。公司成立时是以开发和拓展声纳技术(sonar technology)为主,但在1945年二次世界大战后因市场的需要转移生产缝纫车和收音机,是公司製造的产品首次与音频(audio)有关。1948年研发出首台黑胶唱盘PW1在推出市场后迅即成为唱盘中的翘楚,亦奠定了ELAC在音响界崇高地位。1980年代前期开始,公司开拓和生产高级「发烧」器材,而扬声器是其中一个主要的发展项目,因其产品的性能表现卓越,很快成为追求至美音效的「发烧友」所心仪的器材之一。在过往的十多二十年,ELAC的产品不断地创新和改进,紧贴市场的需求和改变,亦曾获得多个重要的国际音响有关的奖项,因此成为音响界中的一个极具威望的厂牌。因扬声器在整个音响系统当著重要角色,鑑定音淮和真实重播必定要经由它发挥最高性能表现才能达致最理想的音响效果。”ELAC(意力)”扬声器的特性是音色晶莹剔透,动力十足,独特中充满魅力,重播真确性极高,这些优质的表现,必须由清澈明亮、解像度高的优秀录音才可将极级器材的性能完美地呈现。现由以专业製作及代理高质录音音效产品而获发烧乐迷一致推崇的著名德国品牌in-akustik为配合宣传和推广这德国出类拔萃的扬声器,精心挑选了14首由旗下最高质、最具代表性的歌星演绎旋律极为动听的经典名曲,加上每首歌曲的录音效果皆令人完全信服,著意地以这些广获好评的录音凸显这名牌扬声器优越过人的特质,塑造出一张主题明确、音效突出的鑑听必然之选。

专辑曲目

01. Otis Taylor / Red Meat    [0:04:19.71]
02. Meg Hutchinson / Ready    [0:03:31.48]
03. The Pines / Horse & Buggy    [0:03:47.42]
04. Emma-Lee / Not Coming By    [0:04:33.34]
05. Allan Taylor / All Is One    [0:07:30.19]
06. Carrie Newcomer / The Ten O'Clock Line    [0:04:54.32]
07. Greg Brown / Mattie Price    [0:04:41.64]
08. Jodi Shaw / Hell's Bell's    [0:04:11.40]
09. Cliff Eberhardt / 500 Miles    [0:04:33.53]
10. Sophie B. Hawkins / Sinnerman    [0:03:03.22]
11. David Munyon / Rosas Cantina    [0:05:25.58]
12. Eliza Gilkyson, John Gorka, Lucy Kaplansky / Wild Horse    [0:03:51.55]
13. Eugene Ruffolo / Irreplacable    [0:03:38.48]
14. Lynne Hanson / Foolish Things    [0:04:48.21]

游客,如果您要查看本帖隐藏内容请回复,如果您想免回复、免金币,直接查看内容,请开通炫音VIP




  1. Exact Audio Copy V1.0 beta 5 from 2. April 2015

  2. EAC extraction logfile from 12. May 2015, 16:15

  3. Various Artists / The Voice Of ELAC

  4. Used drive  : TSSTcorpCDDVDW SH-224DB   Adapter: 1  ID: 0

  5. Read mode               : Secure
  6. Utilize accurate stream : Yes
  7. Defeat audio cache      : Yes
  8. Make use of C2 pointers : No

  9. Read offset correction                      : 6
  10. Overread into Lead-In and Lead-Out          : No
  11. Fill up missing offset samples with silence : Yes
  12. Delete leading and trailing silent blocks   : No
  13. Null samples used in CRC calculations       : Yes
  14. Used interface                              : Native Win32 interface for Win NT & 2000

  15. Used output format : Internal WAV Routines
  16. Sample format      : 44.100 Hz; 16 Bit; Stereo


  17. TOC of the extracted CD

  18.      Track |   Start  |  Length  | Start sector | End sector
  19.     ---------------------------------------------------------
  20.         1  |  0:00.00 |  4:19.71 |         0    |    19495   
  21.         2  |  4:19.71 |  3:31.48 |     19496    |    35368   
  22.         3  |  7:51.44 |  3:47.42 |     35369    |    52435   
  23.         4  | 11:39.11 |  4:33.34 |     52436    |    72944   
  24.         5  | 16:12.45 |  7:30.19 |     72945    |   106713   
  25.         6  | 23:42.64 |  4:54.32 |    106714    |   128795   
  26.         7  | 28:37.21 |  4:41.64 |    128796    |   149934   
  27.         8  | 33:19.10 |  4:11.40 |    149935    |   168799   
  28.         9  | 37:30.50 |  4:33.53 |    168800    |   189327   
  29.        10  | 42:04.28 |  3:03.22 |    189328    |   203074   
  30.        11  | 45:07.50 |  5:25.58 |    203075    |   227507   
  31.        12  | 50:33.33 |  3:51.55 |    227508    |   244887   
  32.        13  | 54:25.13 |  3:38.48 |    244888    |   261285   
  33.        14  | 58:03.61 |  4:48.21 |    261286    |   282906   


  34. Range status and errors

  35. Selected range

  36.      Filename F:\发烧唱片\Various Artists - The Voice Of ELAC\Various Artists - The Voice Of ELAC.wav

  37.      Peak level 94.4 %
  38.      Extraction speed 7.3 X
  39.      Range quality 100.0 %
  40.      Copy CRC CADF45E4
  41.      Copy OK

  42. No errors occurred

  43. End of status report

  44. ---- CUETools DB Plugin V2.1.6

  45. [CTDB TOCID: 7VhsZpiG7YKPXtfQ.8ZRWXX0Mhc-] disk not present in database
  46. Submit result: 7VhsZpiG7YKPXtfQ.8ZRWXX0Mhc- has been uploaded

复制代码

评分

参与人数 1音符 +5 炫币 +5 收起 理由
樱樱 + 5 + 5 炫音品牌

查看全部评分

已抛锚 成长值: 2960

发表于 2018-11-5 11:10:32 | 显示全部楼层
Thanks or sharing !
回复 支持 反对

使用道具 举报

发表于 2018-11-5 11:13:06 | 显示全部楼层
谢谢楼主分享。
回复 支持 反对

使用道具 举报

发表于 2018-11-5 18:20:47 | 显示全部楼层
非常美妙的歌声,谢谢分享
回复 支持 反对

使用道具 举报

发表于 2018-11-5 18:27:20 | 显示全部楼层
德国原音+德国音箱名牌ELAC(意力)试音发烧
回复 支持 反对

使用道具 举报

发表于 2018-11-5 18:49:36 | 显示全部楼层
发烧精品,好东西顶一个,谢谢楼主分享。
回复 支持 反对

使用道具 举报

发表于 2018-11-6 07:13:03 | 显示全部楼层
非常不错,收下了
回复 支持 反对

使用道具 举报

发表于 2018-11-7 09:43:08 | 显示全部楼层
谢谢楼主分享!
回复 支持 反对

使用道具 举报

发表于 2018-11-7 12:14:49 | 显示全部楼层
好,实在是好,意力音箱遥远的记忆了,谢谢分享
回复 支持 反对

使用道具 举报

发表于 2018-12-7 10:58:18 | 显示全部楼层
谢谢分享   谢谢分享
回复 支持 反对

使用道具 举报

发表于 2018-12-8 21:24:51 | 显示全部楼层
谢谢··················
回复 支持 反对

使用道具 举报

发表于 7 天前 | 显示全部楼层
太珍贵的试音资源,谢谢分享!
回复 支持 反对

使用道具 举报

 成长值: 1555

发表于 7 天前 | 显示全部楼层
谢谢楼主分享!
回复 支持 反对

使用道具 举报

您需要登录后才可以回帖 登录 | 立即注册

本版积分规则

手机版|炫音音乐论坛 ( 皖ICP备13017420号-3 )皖公网安备 34082502000069号

GMT+8, 2018-12-16 02:55 , Processed in 0.075998 second(s), 25 queries , Gzip On.

Powered by Discuz! X3.4

© 2004-2017 炫音音乐论坛

快速回复 返回顶部 返回列表