查看: 3637|回复: 271

[流行] [原抓] Amy MacDonald - Woman Of The World 苏格兰民谣摇滚天后艾米麦当劳精选

  [复制链接]
发表于 2018-11-26 12:37:56 | 显示全部楼层 |阅读模式
本帖最后由 barca008 于 2018-11-26 12:43 编辑



★苏格兰民谣摇滚中生代天后,生涯首张正式精选辑降临
★全球销售突破1300万张,多次荣获欧洲各项权威性音乐大奖
★收录多首打入英国金榜经典曲目,以及新歌"Woman Of The World"、"Come Home"

Amy MacDonald堪称当代苏格兰乐坛的首席Folk Rock天后人物,精通各项乐器演奏的她,将Folk Rock、Indie Rock、Indie Pop、Soft Rock等乐派融会贯通,打造出自己独一无二的音乐风格,并且多次获得音乐大奖青睐,同时也在全球销售上屡创佳绩;而她在今年释出首张正式精选辑,象征着对于音乐生涯的完美回顾。

Amy MacDonald在2007年正式出道,同时精通吉他、钢琴、键盘与鼓的她,受到Travis、The Killers以及The Libertines等乐团影响,音乐风格多元丰富,并且以Folk Rock为骨干,同时把Indie Rock、Indie Pop、Soft Rock等乐风融入,将自己的特色发挥到淋漓尽致,而本身的苏格兰腔调,更增添她音乐上的独特性。从2007年起,Amy MacDonald陆续释出【This Is the Life】、【A Curious Thing】、【Life in a Beautiful Light】、【Under Stars】等专辑,在全球累积超过1300万张专辑销售,并且荣获2座Scottish Music Awards音乐大奖、3座Swiss Music Awards音乐大奖、1座Echo Awards音乐大奖,而她的专辑在排行榜上,从没有拿过英国金榜Top5以外的成绩,更空降过冠军宝座。出道届满11年的她,回首自己的音乐生涯时表示,「在经历这么多年的音乐旅程之后,我认为这是一个回首来时路的最佳时机,同时我也对于自己所经历的一切感到骄傲」,因此,Amy MacDonald与唱片公司讨论后,精挑细选出她生涯的经典作品,发行为此张【Woman of The World The Very Best Of Amy MacDonald】。

【Woman of The World The Very Best Of Amy MacDonald】一共收录了16首歌曲,包含最受乐迷喜爱的"Poison Prince"、"Mr Rock & Roll"、"This Is the Life"、"Dream On"、"Run"、"Don`t Tell Me That It`s Over"等,皆是过去11年之中,Amy MacDonald精心粹炼出的作品,让她多次在英国金榜的单曲排行上勇夺Top200,其中"This Is the Life"更是闯入英国金榜Top30,并摘下澳洲、比利时、荷兰、挪威等地的冠军头衔;这次的精选辑中,另外收录两首Amy MacDonald的全新创作,一首是同名创作歌曲"Woman Of The World",另一首则是情感真挚浓厚的"Come Home",代表着她回首音乐之路的种种。见证苏格兰当代民谣天后的第一个十年,千万不能错过此张【Woman of The World The Very Best Of Amy MacDonald】。






Artist: Amy MacDonald
Title: Woman Of The World: The Best of 2007-2018
Style: Pop/Folk
Label: Virgin EMI Records
Barcode: 00602567940074
Release Date: 2018-11-23
Release Country: EU
Catalog Number: 00602567940074
Duration: 01:00:18
Source: CDDA
Grabber: EAC Secure Mode
Format: FLAC Lossless
SID-Code CD-Master: IFPI-L556
SID-Code Presswerk: IFPI-944S
Encoder: barca008


Amy MacDonald - Woman Of The World: The Best of 2007-2018

01. This Is The Life    [0:03:05.25]
02. Mister Rock And Roll    [0:03:34.81]
03. Slow It Down    [0:03:53.08]
04. Dream On    [0:03:19.37]
05. What Happiness Means To Me    [0:04:55.81]
06. Woman Of The World    [0:03:33.16]
07. Poison Prince    [0:03:28.61]
08. From The Ashes    [0:03:35.48]
09. Pride    [0:03:22.34]
10. Run    [0:03:48.69]
11. Down By The Water (Acoustic)    [0:03:27.90]
12. Don't Tell Me That It's Over    [0:03:15.61]
13. Give It All Up (BBC Live Session)    [0:03:31.30]
14. Come On    [0:03:13.80]
15. Left That Body Long Ago    [0:04:46.78]
16. Let's Start A Band (Live From Berlin Tempodrom)    [0:05:26.12]



链接:https://pan.baidu.com/s/1ACKpaBF-56CF6dYana1QAw

提取码:
游客,如果您要查看本帖隐藏内容请回复,如果您想免回复、免金币,直接查看内容,请开通炫音VIP



 楼主| 发表于 2018-11-26 12:45:01 | 显示全部楼层
Amy1.jpg

Amy2.jpg

  1. Exact Audio Copy V1.1 from 23. June 2015

  2. EAC extraction logfile from 26. November 2018, 12:08

  3. Amy MacDonald / Woman Of The World: The Best of 2007-2018

  4. Used drive  : slimtype eTDU108   1   Adapter: 1  ID: 0

  5. Read mode               : Secure
  6. Utilize accurate stream : Yes
  7. Defeat audio cache      : Yes
  8. Make use of C2 pointers : No

  9. Read offset correction                      : 6
  10. Overread into Lead-In and Lead-Out          : No
  11. Fill up missing offset samples with silence : Yes
  12. Delete leading and trailing silent blocks   : No
  13. Null samples used in CRC calculations       : Yes
  14. Used interface                              : Native Win32 interface for Win NT & 2000
  15. Gap handling                                : Appended to previous track

  16. Used output format              : User Defined Encoder
  17. Selected bitrate                : 1024 kBit/s
  18. Quality                         : High
  19. Add ID3 tag                     : No
  20. Command line compressor         : C:\Program Files (x86)\Exact Audio Copy\FLAC\FLAC.EXE
  21. Additional command line options : -8 -V -T "ARTIST=%artist%" -T "TITLE=%title%" -T "ALBUM=%albumtitle%" -T "DATE=%year%" -T "TRACKNUMBER=%tracknr%" -T "GENRE=%genre%" -T "COMMENT=%comment%" -T "BAND=%albuminterpret%" -T "ALBUMARTIST=%albuminterpret%" -T "COMPOSER=%composer%" %haslyrics%--tag-from-file=LYRICS="%lyricsfile%"%haslyrics% -T "DISCNUMBER=%cdnumber%" -T "TOTALDISCS=%totalcds%" -T "TOTALTRACKS=%numtracks%" %hascover%--picture="%coverfile%"%hascover% %source% -o %dest%


  22. TOC of the extracted CD

  23.      Track |   Start  |  Length  | Start sector | End sector
  24.     ---------------------------------------------------------
  25.         1  |  0:00.00 |  3:05.19 |         0    |    13893   
  26.         2  |  3:05.19 |  3:34.61 |     13894    |    30004   
  27.         3  |  6:40.05 |  3:53.06 |     30005    |    47485   
  28.         4  | 10:33.11 |  3:19.28 |     47486    |    62438   
  29.         5  | 13:52.39 |  4:55.61 |     62439    |    84624   
  30.         6  | 18:48.25 |  3:33.12 |     84625    |   100611   
  31.         7  | 22:21.37 |  3:28.46 |    100612    |   116257   
  32.         8  | 25:50.08 |  3:35.36 |    116258    |   132418   
  33.         9  | 29:25.44 |  3:22.26 |    132419    |   147594   
  34.        10  | 32:47.70 |  3:48.52 |    147595    |   164746   
  35.        11  | 36:36.47 |  3:27.68 |    164747    |   180339   
  36.        12  | 40:04.40 |  3:15.46 |    180340    |   195010   
  37.        13  | 43:20.11 |  3:31.23 |    195011    |   210858   
  38.        14  | 46:51.34 |  3:13.60 |    210859    |   225393   
  39.        15  | 50:05.19 |  4:46.59 |    225394    |   246902   
  40.        16  | 54:52.03 |  5:26.09 |    246903    |   271361   


  41. Track  1

  42.      Filename D:\My Music\barca008\Amy MacDonald - Woman Of The World-The Best of 2007-2018 (2018) [00602567940074]\01 - This Is The Life.wav

  43.      Pre-gap length  0:00:02.00

  44.      Peak level 99.9 %
  45.      Extraction speed 1.8 X
  46.      Track quality 99.9 %
  47.      Test CRC 3FF650DE
  48.      Copy CRC 3FF650DE
  49.      Track not present in AccurateRip database
  50.      Copy OK

  51. Track  2

  52.      Filename D:\My Music\barca008\Amy MacDonald - Woman Of The World-The Best of 2007-2018 (2018) [00602567940074]\02 - Mister Rock And Roll.wav

  53.      Peak level 99.9 %
  54.      Extraction speed 2.1 X
  55.      Track quality 99.9 %
  56.      Test CRC 517BDCA8
  57.      Copy CRC 517BDCA8
  58.      Track not present in AccurateRip database
  59.      Copy OK

  60. Track  3

  61.      Filename D:\My Music\barca008\Amy MacDonald - Woman Of The World-The Best of 2007-2018 (2018) [00602567940074]\03 - Slow It Down.wav

  62.      Peak level 98.0 %
  63.      Extraction speed 2.9 X
  64.      Track quality 100.0 %
  65.      Test CRC CC1E1966
  66.      Copy CRC CC1E1966
  67.      Track not present in AccurateRip database
  68.      Copy OK

  69. Track  4

  70.      Filename D:\My Music\barca008\Amy MacDonald - Woman Of The World-The Best of 2007-2018 (2018) [00602567940074]\04 - Dream On.wav

  71.      Peak level 98.0 %
  72.      Extraction speed 3.1 X
  73.      Track quality 100.0 %
  74.      Test CRC 05624CFA
  75.      Copy CRC 05624CFA
  76.      Track not present in AccurateRip database
  77.      Copy OK

  78. Track  5

  79.      Filename D:\My Music\barca008\Amy MacDonald - Woman Of The World-The Best of 2007-2018 (2018) [00602567940074]\05 - What Happiness Means To Me.wav

  80.      Peak level 100.0 %
  81.      Extraction speed 2.8 X
  82.      Track quality 99.9 %
  83.      Test CRC 41785668
  84.      Copy CRC 41785668
  85.      Track not present in AccurateRip database
  86.      Copy OK

  87. Track  6

  88.      Filename D:\My Music\barca008\Amy MacDonald - Woman Of The World-The Best of 2007-2018 (2018) [00602567940074]\06 - Woman Of The World.wav

  89.      Peak level 98.0 %
  90.      Extraction speed 3.5 X
  91.      Track quality 100.0 %
  92.      Test CRC 1C987AB6
  93.      Copy CRC 1C987AB6
  94.      Track not present in AccurateRip database
  95.      Copy OK

  96. Track  7

  97.      Filename D:\My Music\barca008\Amy MacDonald - Woman Of The World-The Best of 2007-2018 (2018) [00602567940074]\07 - Poison Prince.wav

  98.      Peak level 100.0 %
  99.      Extraction speed 3.6 X
  100.      Track quality 100.0 %
  101.      Test CRC 68BE2D0D
  102.      Copy CRC 68BE2D0D
  103.      Track not present in AccurateRip database
  104.      Copy OK

  105. Track  8

  106.      Filename D:\My Music\barca008\Amy MacDonald - Woman Of The World-The Best of 2007-2018 (2018) [00602567940074]\08 - From The Ashes.wav

  107.      Peak level 98.0 %
  108.      Extraction speed 3.0 X
  109.      Track quality 99.9 %
  110.      Test CRC BE6A1A40
  111.      Copy CRC BE6A1A40
  112.      Track not present in AccurateRip database
  113.      Copy OK

  114. Track  9

  115.      Filename D:\My Music\barca008\Amy MacDonald - Woman Of The World-The Best of 2007-2018 (2018) [00602567940074]\09 - Pride.wav

  116.      Peak level 98.0 %
  117.      Extraction speed 4.0 X
  118.      Track quality 100.0 %
  119.      Test CRC 6CF80B5C
  120.      Copy CRC 6CF80B5C
  121.      Track not present in AccurateRip database
  122.      Copy OK

  123. Track 10

  124.      Filename D:\My Music\barca008\Amy MacDonald - Woman Of The World-The Best of 2007-2018 (2018) [00602567940074]\10 - Run.wav

  125.      Peak level 99.9 %
  126.      Extraction speed 4.2 X
  127.      Track quality 100.0 %
  128.      Test CRC 4674B696
  129.      Copy CRC 4674B696
  130.      Track not present in AccurateRip database
  131.      Copy OK

  132. Track 11

  133.      Filename D:\My Music\barca008\Amy MacDonald - Woman Of The World-The Best of 2007-2018 (2018) [00602567940074]\11 - Down By The Water (Acoustic).wav

  134.      Peak level 98.0 %
  135.      Extraction speed 4.3 X
  136.      Track quality 100.0 %
  137.      Test CRC A18D559C
  138.      Copy CRC A18D559C
  139.      Track not present in AccurateRip database
  140.      Copy OK

  141. Track 12

  142.      Filename D:\My Music\barca008\Amy MacDonald - Woman Of The World-The Best of 2007-2018 (2018) [00602567940074]\12 - Don't Tell Me That It's Over.wav

  143.      Peak level 100.0 %
  144.      Extraction speed 4.4 X
  145.      Track quality 100.0 %
  146.      Test CRC 2D90A7B3
  147.      Copy CRC 2D90A7B3
  148.      Track not present in AccurateRip database
  149.      Copy OK

  150. Track 13

  151.      Filename D:\My Music\barca008\Amy MacDonald - Woman Of The World-The Best of 2007-2018 (2018) [00602567940074]\13 - Give It All Up (BBC Live Session).wav

  152.      Peak level 99.8 %
  153.      Extraction speed 4.6 X
  154.      Track quality 100.0 %
  155.      Test CRC C856C37B
  156.      Copy CRC C856C37B
  157.      Track not present in AccurateRip database
  158.      Copy OK

  159. Track 14

  160.      Filename D:\My Music\barca008\Amy MacDonald - Woman Of The World-The Best of 2007-2018 (2018) [00602567940074]\14 - Come On.wav

  161.      Peak level 98.0 %
  162.      Extraction speed 4.5 X
  163.      Track quality 100.0 %
  164.      Test CRC 75174578
  165.      Copy CRC 75174578
  166.      Track not present in AccurateRip database
  167.      Copy OK

  168. Track 15

  169.      Filename D:\My Music\barca008\Amy MacDonald - Woman Of The World-The Best of 2007-2018 (2018) [00602567940074]\15 - Left That Body Long Ago.wav

  170.      Peak level 98.0 %
  171.      Extraction speed 5.0 X
  172.      Track quality 100.0 %
  173.      Test CRC 91696D86
  174.      Copy CRC 91696D86
  175.      Track not present in AccurateRip database
  176.      Copy OK

  177. Track 16

  178.      Filename D:\My Music\barca008\Amy MacDonald - Woman Of The World-The Best of 2007-2018 (2018) [00602567940074]\16 - Let's Start A Band (Live From Berlin Tempodrom).wav

  179.      Peak level 98.0 %
  180.      Extraction speed 5.3 X
  181.      Track quality 100.0 %
  182.      Test CRC 274DABFE
  183.      Copy CRC 274DABFE
  184.      Track not present in AccurateRip database
  185.      Copy OK


  186. None of the tracks are present in the AccurateRip database

  187. No errors occurred

  188. End of status report

  189. ---- CUETools DB Plugin V2.1.6

  190. [CTDB TOCID: WZjU.FmHZK6CP_cRG3p1WxwuZk0-] found
  191. Submit result: WZjU.FmHZK6CP_cRG3p1WxwuZk0- has been confirmed
  192. Track | CTDB Status
  193.   1   | (4/4) Accurately ripped
  194.   2   | (4/4) Accurately ripped
  195.   3   | (4/4) Accurately ripped
  196.   4   | (4/4) Accurately ripped
  197.   5   | (4/4) Accurately ripped
  198.   6   | (4/4) Accurately ripped
  199.   7   | (4/4) Accurately ripped
  200.   8   | (4/4) Accurately ripped
  201.   9   | (4/4) Accurately ripped
  202. 10   | (4/4) Accurately ripped
  203. 11   | (4/4) Accurately ripped
  204. 12   | (4/4) Accurately ripped
  205. 13   | (4/4) Accurately ripped
  206. 14   | (4/4) Accurately ripped
  207. 15   | (4/4) Accurately ripped
  208. 16   | (4/4) Accurately ripped


  209. ==== Log checksum 143D558D121AFA90A93ACF0A12B6274828CA45CFA2183D426E052F65C37B8E13 ====
复制代码
回复 支持 反对

使用道具 举报

头像被屏蔽
发表于 2018-11-26 14:29:48 | 显示全部楼层
提示: 作者被禁止或删除 内容自动屏蔽
回复 支持 反对

使用道具 举报

发表于 2018-11-26 15:33:53 | 显示全部楼层
感谢楼主分享
回复 支持 反对

使用道具 举报

发表于 2018-11-26 15:37:14 | 显示全部楼层
非常喜欢!谢谢
回复 支持 反对

使用道具 举报

发表于 2018-11-26 16:20:51 | 显示全部楼层
藏内容请回复,如果您想免回复

评分

参与人数 1音符 -14 炫币 -14 收起 理由
barca008 -14 -14 恶意灌水!

查看全部评分

回复 支持 反对

使用道具 举报

发表于 2018-11-26 19:05:50 | 显示全部楼层
非常感谢无私分享
回复 支持 反对

使用道具 举报

发表于 2018-11-26 19:34:34 | 显示全部楼层
谢谢版主分享精品专辑,下载试听体会
回复 支持 反对

使用道具 举报

发表于 2018-11-26 23:35:38 | 显示全部楼层
感觉还不错,支持分享!
回复 支持 反对

使用道具 举报

 成长值: 4975

发表于 2018-11-27 09:13:22 | 显示全部楼层
专辑质量很高,音乐很动听,很励志!
回复 支持 反对

使用道具 举报

发表于 2018-11-27 10:54:13 | 显示全部楼层
喜欢欧美民谣
回复 支持 反对

使用道具 举报

发表于 2018-11-27 11:18:38 | 显示全部楼层
感谢楼主分享
回复 支持 反对

使用道具 举报

发表于 2018-11-27 19:19:03 | 显示全部楼层
听说很久的大碟了,今日有幸遇到,十分感谢楼主的无私奉献
回复 支持 反对

使用道具 举报

发表于 2018-11-28 01:24:12 | 显示全部楼层
非常感谢无私分享
回复 支持 反对

使用道具 举报

 成长值: 1300

发表于 2018-11-28 15:47:14 | 显示全部楼层
谢谢您的分享.
回复 支持 反对

使用道具 举报

您需要登录后才可以回帖 登录 | 立即注册

本版积分规则

手机版|炫音音乐论坛 ( 皖ICP备13017420号-3 )皖公网安备 34082502000069号

GMT+8, 2019-9-21 04:24 , Processed in 0.088195 second(s), 29 queries , Gzip On.

Powered by Discuz! X3.4

© 2004-2017 炫音音乐论坛

快速回复 返回顶部 返回列表