查看: 1574|回复: 69

[原抓发烧] 30-40年代中国一代巨星的混音精选 《 上海绝世红伶 2CD 》新加坡华纳 [FLAC/百度云]

  [复制链接]
发表于 2018-12-26 23:28:51 | 显示全部楼层 |阅读模式
本帖最后由 colinkfo 于 2018-12-27 00:23 编辑

co_wm.jpg


不久前香港EMI寻获了一批尘封于印度Gramophone公司的录音室中超过70年,上千首包含周璇、白光、李香兰、张露、姚莉、白虹等30-40年代中国一代巨星的珍贵原音母带,所有的录音都完好如初,其中百分之七十从未以CD的型式出版。这样重要且珍贵的发现,绝对是华人音乐世界最具份量的经典大事.因为对世界各地的华人来说,中文流行音乐是中国文化的重要宝库,这些当代知名上海女伶的录音能被完整的保存下来,都是无可取代的中国音乐遗产及宝藏。

香港EMI在意外的得到这批宝藏后,便迫不及待要让这些重要的文化资产以全新面貌,重见天日;假如,就这样把这批唱片再出一遍,未免在熟悉的声音中稍显乏味。于是,这批声音采样被送到了英国知名电子DJ Ian Widgery 手中,经过现代化混音(Remix),把这批陈年老歌以Downtempo、Trip Hop Dub、Big Beat 、AcidHouse、Nu-Breaks、Hip House、Progressive Tech-House的形态在廿一世纪以崭新的面貌重现,充满欧陆跳舞音乐的时尚摩登感觉。



专辑名称: ShangHai Lounge Divas 上海绝世红伶 2CD
专辑乐手: 群星
出品公司: 新加坡华纳
发行年份: 2009


CD1 (混音版)

01 Plum Blossom 梅花 (2009 Remix) – 李香兰  
02 Waiting 4 U 等著你回来 (2009 Remix) – 白光
03 If Only… 恨不相逢未嫁时(2009 Remix) – 李香兰
04 Stop Singing 不要唱吧 (2009 Remix) – 周璇
05 The Pretender 假正经 (2009 Remix) – 白光
06 All the Stars in the Sky 满天星 (2009 Remix) – 张露
07 This Love is Not for Me 得不到的爱情 (2009 Remix) – 姚莉
08 Listen Up 且听我说 (2009 Remix) – 白虹
09 Autumn Evening 秋夜 (2009 Remix) – 白光
10 The Wandering Songstress 天涯歌女 (2009 Remix) – 周璇
11 The Plough Song 锄头山歌 (2009 Remix) – 张露
12 Ye Shanghai 夜上海 (2009 Remix) – 周璇

注: 第12首包含两首隐藏曲


CD 2 (原音版)

01 Plum Blossom 梅花 – 李香兰
02 Waiting 4 U 等著你回来 – 白光
03 If Only… 恨不相逢未嫁时 – 李香兰
04 Stop Singing 不要唱吧 – 周璇
05 The Pretender 假正经 – 白光
06 All the Stars in the Sky 满天星 – 张露
07 This Love is Not for Me 得不到的爱情 – 姚莉
08 Listen Up 且听我说 – 白虹
09 Autumn Evening 秋夜 – 白光
10 The Wandering Songstress 天涯歌女 – 周璇
11 The Plough Song 锄头山歌 – 张露
12  Ye Shanghai 夜上海 – 周璇
13  Longing for You 秋水伊人 – 龚秋霞
14 Lingering Love 爱的流连 – 曼萍
15 Shangri-La 香格里拉 – 欧阳飞莺
16 Shanghai Miss 上海小姐 – 张伊雯
17 Love that’s Gone 霓裳恨 – 谷莺
18 Song of the Fisherman 渔光曲(一) – 王人美
19 Harmonious Couple 鸾凤谐鸣 — 郎毓秀
20 Hundred Birds 百鸟朝凰 – 李丽华/严华
21 Fallen Petals 落花飘零 – 璐敏
22 Heavenly Spring Dream 天堂春梦 – 路明
23 The Blossom Youth 花样的年华 — 周璇
24 The Night Is Too Beautiful To Last 良夜不能留 – 佩妮


inlay_wm.jpg





试曲: 梅花 (2009 Remix) – 李香兰



链接: https://pan.baidu.com/s/1HuIJ3JSXK2HSttP21VOflA  


游客,如果您要查看本帖隐藏内容请回复,如果您想免回复、免金币,直接查看内容,请开通炫音VIP

评分

参与人数 1音符 +10 金币 +10 收起 理由
wufeng + 10 + 10 炫音因你而精彩!

查看全部评分

 楼主| 发表于 2018-12-26 23:36:20 | 显示全部楼层
Exact Audio Copy V1.1 from 23. June 2015

EAC 抓取日志文件从19. 六月 2017, 19:31

群星 / ShangHai Lounge Divas 上海绝世红伶 CD1

使用驱动器  :HL-DT-STDVDRAM GP30NB20   Adapter: 1  ID: 0

读取模式      : 可靠Secure
使用精确流     : 是
清空音频缓存    : 是
使用 C2 指示器 : 否

读取偏移校正:               : 6
读取 Lead-In 和 Lead-Out : 否
用静音填充抓取中丢失偏移的采样       : 是
去除首尾静音块               : 否
在CRC 计算中使用了空样本       : 是
已用接口                  : Win NT 及 2000 本地 Win32 接口

所用输出模式:   : 用户定义的编码器
已选比特率     : 896 kBit/s
质量        : 高
添加 ID3 标签 : 否
命令行压缩器    : C:\Program Files\Exact Audio Copy\FLAC\FLAC.EXE
附加命令行参数:  : -8 -V -T "Date=%year%" -T "Genre=%genre%" -T "COMMENT=ripped by Colinkfo;" %source%


已抓取 CD 的 TOC

     音轨 |    起始    |    长度    |  起始扇区  |  结束扇区  
    --------------------------------------------
      1 |  0:00.00 |  3:05.12 |      0 |  13886
      2 |  3:05.12 |  6:46.55 |  13887 |  44391
      3 |  9:51.67 |  6:17.55 |  44392 |  72721
      4 | 16:09.47 |  4:47.01 |  72722 |  94247
      5 | 20:56.48 |  4:30.29 |  94248 | 114526
      6 | 25:27.02 |  3:44.34 | 114527 | 131360
      7 | 29:11.36 |  3:45.71 | 131361 | 148306
      8 | 32:57.32 |  4:02.34 | 148307 | 166490
      9 | 36:59.66 |  3:16.67 | 166491 | 181257
     10 | 40:16.58 |  3:07.68 | 181258 | 195350
     11 | 43:24.51 |  3:37.61 | 195351 | 211686
     12 | 47:02.37 | 18:12.18 | 211687 | 293604


范围状态及错误

已选择范围

     文件名 H:\New Folder\群星 - ShangHai Lounge Divas 上海绝世红伶 CD1.wav

     峰值电平 99.7 %
     抓取速度 4.8 X
     范围质量 100.0 %
     复制 CRC 63418106
     复制成功

没有错误发生


AccurateRip 摘要

音轨  1  精确地校准抓取  2)  [E6EB7D87]  (AR v1)
音轨  2  精确地校准抓取  1)  [10D08E86]  (AR v2)
音轨  3  精确地校准抓取  2)  [974A2BA2]  (AR v1)
音轨  4  精确地校准抓取  2)  [7245B914]  (AR v1)
音轨  5  精确地校准抓取  2)  [3A2BD30C]  (AR v1)
音轨  6  精确地校准抓取  2)  [C260B261]  (AR v1)
音轨  7  精确地校准抓取  2)  [45A67309]  (AR v1)
音轨  8  精确地校准抓取  2)  [63B34C60]  (AR v1)
音轨  9  精确地校准抓取  2)  [2C0C0FDB]  (AR v1)
音轨 10  精确地校准抓取  2)  [16C54D6F]  (AR v1)
音轨 11  精确地校准抓取  2)  [FBA93C5C]  (AR v1)
音轨 12  精确地校准抓取  2)  [333171BB]  (AR v1)

所有音轨精确校准抓取

状态报告结尾

==== 记录校验日志 29C4E30C51C6F805D36A2EE716E823E28ABD55842038B8A343F0179560B20806 ====
回复 支持 反对

使用道具 举报

发表于 2018-12-27 09:39:41 | 显示全部楼层
当年的上海老歌经过重新录制,更好的还原了当年的风情花卷~~
回复 支持 反对

使用道具 举报

发表于 2018-12-27 15:34:10 | 显示全部楼层
不错的分享,谢谢楼主
回复 支持 反对

使用道具 举报

发表于 2018-12-27 16:35:44 | 显示全部楼层
不错的分享谢谢楼主
回复 支持 反对

使用道具 举报

发表于 2018-12-29 05:56:58 | 显示全部楼层
VERY INTEREST THANK YOU
回复 支持 反对

使用道具 举报

 成长值: 320

发表于 2018-12-31 23:56:22 | 显示全部楼层
解压密码呢

点评

在提取码下面点 - "点击此处下载"  发表于 2019-1-1 17:51
回复 支持 反对

使用道具 举报

发表于 2019-1-5 18:33:16 | 显示全部楼层
太美啦,谢谢提供。
回复 支持 反对

使用道具 举报

发表于 2019-1-11 08:16:24 | 显示全部楼层
感谢分享这些纯音乐
回复 支持 反对

使用道具 举报

 成长值: 10885

发表于 2019-1-11 18:25:29 | 显示全部楼层
混了音真的好吗
回复 支持 反对

使用道具 举报

发表于 2019-1-11 18:52:13 | 显示全部楼层
谢谢楼主的分享,辛苦了。
回复 支持 反对

使用道具 举报

 成长值: 3145

发表于 2019-1-12 20:22:03 | 显示全部楼层
不错的分享,谢谢楼主
回复 支持 反对

使用道具 举报

发表于 2019-1-18 14:01:49 | 显示全部楼层
这真的是老歌星唱的吗
回复 支持 反对

使用道具 举报

发表于 2019-1-21 12:53:41 | 显示全部楼层
老歌的原唱吗,谢谢分享
回复 支持 反对

使用道具 举报

您需要登录后才可以回帖 登录 | 立即注册

本版积分规则

手机版|炫音音乐论坛 ( 皖ICP备13017420号-3 )皖公网安备 34082502000069号

GMT+8, 2019-7-20 09:24 , Processed in 0.086415 second(s), 31 queries , Gzip On.

Powered by Discuz! X3.4

© 2004-2017 炫音音乐论坛

快速回复 返回顶部 返回列表