查看: 1925|回复: 194

[华语流行] [原抓] 韩宝仪 / 林淑娟 《 恰恰迎新年 》 风格唱片 [WAV/百度云]

  [复制链接]
发表于 2018-12-31 00:08:24 | 显示全部楼层 |阅读模式
本帖最后由 colinkfo 于 2018-12-31 02:59 编辑

co_wm.jpg


2019元旦快乐!



专辑名称: 恰恰迎新年
专辑歌手: 韩宝仪 林淑娟
出品公司: 风格唱片 (马来西亚)
唱片编号: CRCD 3029-S




专辑曲目:

01. 拜年
02. 爱过年
03. 好一个大新年
04. 傻瓜与好姑娘
05. 欢喜冤家过新年
06. 趁着新年配成双
07. 娶个老婆好过年
08. 年初一起大早
09. 新年新禧新气象
10. 花开春常在
11. 家家户户喜洋洋
12. 春天不是读书天

BONUS TRACKS

13. 舞龙舞狮迎新春 - 韩宝仪/江淑娜
14. 齐来迎接欢乐年 - 韩宝仪
15. 唱出一个好春天 - 韩宝仪
16. 迎春接福 - 韩宝仪
17. 迎新年 - 韩宝仪
18. 新年歌儿大家唱 - 韩宝仪
19. 迎春花 - 韩宝仪
20. 恭祝大家发大财 - 韩宝仪
21. 新春佳节 - 林淑娟
22. 美好的一年 - 林淑娟
23. 齐声欢唱幸福年 - 林淑娟
24. 一年更比一年好 - 林淑娟
25. 春花齐放 - 林淑娟


bk_wm.jpg






试曲 : 花开春常在 - 韩宝仪/林淑娟


游客,如果您要查看本帖隐藏内容请回复,如果您想免回复、免金币,直接查看内容,请开通炫音VIP

评分

参与人数 1音符 +8 金币 +8 收起 理由
wufeng + 8 + 8 炫音因你而精彩!

查看全部评分

 楼主| 发表于 2018-12-31 00:09:25 | 显示全部楼层
Exact Audio Copy V1.1 from 23. June 2015

EAC 抓取日志文件从27. 十二月 2018, 21:39

韩宝仪 林淑娟 / 恰恰迎新年

使用驱动器  :HL-DT-STDVDRAM GP30NB20   Adapter: 1  ID: 0

读取模式      : 可靠Secure
使用精确流     : 是
清空音频缓存    : 是
使用 C2 指示器 : 否

读取偏移校正:               : 6
读取 Lead-In 和 Lead-Out : 否
用静音填充抓取中丢失偏移的采样       : 是
去除首尾静音块               : 否
在CRC 计算中使用了空样本       : 是
已用接口                  : Win NT 及 2000 本地 Win32 接口

所用输出模式: : 内部 WAV 函数
样本格式    : 44.100 Hz; 16 Bit; 立体声


已抓取 CD 的 TOC

     音轨 |    起始    |    长度    |  起始扇区  |  结束扇区  
    --------------------------------------------
      1 |  0:00.01 |  3:46.45 |      1 |  16995
      2 |  3:46.46 |  3:18.03 |  16996 |  31848
      3 |  7:04.49 |  3:38.39 |  31849 |  48237
      4 | 10:43.13 |  3:25.30 |  48238 |  63642
      5 | 14:08.43 |  5:52.49 |  63643 |  90091
      6 | 20:01.17 |  2:53.08 |  90092 | 103074
      7 | 22:54.25 |  3:14.67 | 103075 | 117691
      8 | 26:09.17 |  3:19.25 | 117692 | 132641
      9 | 29:28.42 |  3:53.28 | 132642 | 150144
     10 | 33:21.70 |  4:16.21 | 150145 | 169365
     11 | 37:38.16 |  3:16.64 | 169366 | 184129
     12 | 40:55.05 |  3:19.51 | 184130 | 199105
     13 | 44:14.56 |  2:26.67 | 199106 | 210122
     14 | 46:41.48 |  2:55.23 | 210123 | 223270
     15 | 49:36.71 |  1:54.22 | 223271 | 231842
     16 | 51:31.18 |  2:30.17 | 231843 | 243109
     17 | 54:01.35 |  1:12.63 | 243110 | 248572
     18 | 55:14.23 |  1:26.38 | 248573 | 255060
     19 | 56:40.61 |  1:22.59 | 255061 | 261269
     20 | 58:03.45 |  2:27.11 | 261270 | 272305
     21 | 60:30.56 |  2:37.23 | 272306 | 284103
     22 | 63:08.04 |  2:23.37 | 284104 | 294865
     23 | 65:31.41 |  3:25.15 | 294866 | 310255
     24 | 68:56.56 |  2:17.10 | 310256 | 320540
     25 | 71:13.66 |  2:30.35 | 320541 | 331825


范围状态及错误

已选择范围

     文件名 H:\New Folder\韩宝仪 林淑娟 - 恰恰迎新年.wav

     峰值电平 100.0 %
     抓取速度 2.2 X
     范围质量 100.0 %
     复制 CRC 04F5DB8D
     复制成功

没有错误发生

状态报告结尾

==== 记录校验日志 F3D0F4FA96A7E0593B78E17404191F4D13BBF596F16871AA2D4D0AE0E4525CA3 ====
回复 支持 反对

使用道具 举报

发表于 2018-12-31 07:13:07 | 显示全部楼层
喜欢
谢分享
回复 支持 反对

使用道具 举报

发表于 2018-12-31 07:16:08 | 显示全部楼层
谢谢分享。节日的喜庆。
回复 支持 反对

使用道具 举报

发表于 2018-12-31 07:57:32 | 显示全部楼层
谢谢分享美妙音乐!
回复 支持 反对

使用道具 举报

发表于 2018-12-31 08:02:52 | 显示全部楼层
谢谢楼主分享!
回复 支持 反对

使用道具 举报

发表于 2018-12-31 08:20:10 | 显示全部楼层
感谢楼主分享!
回复 支持 反对

使用道具 举报

发表于 2018-12-31 08:24:57 | 显示全部楼层
谢谢楼主分享!
回复 支持 反对

使用道具 举报

发表于 2018-12-31 08:33:04 | 显示全部楼层
回忆的味道啊
回复 支持 反对

使用道具 举报

发表于 2018-12-31 09:00:44 | 显示全部楼层
感谢发帖楼主威武3
回复 支持 反对

使用道具 举报

发表于 2018-12-31 09:15:22 | 显示全部楼层
看介绍是一张很不错的节日喜庆音乐。多谢分享!!!
回复 支持 反对

使用道具 举报

发表于 2018-12-31 09:18:10 | 显示全部楼层
经典歌曲,谢谢分享。
回复 支持 反对

使用道具 举报

发表于 2018-12-31 09:18:36 | 显示全部楼层
新的一年就要到来,欣赏专辑增添喜庆,谢谢!
回复 支持 反对

使用道具 举报

发表于 2018-12-31 09:28:24 | 显示全部楼层
又到新的一年了,要来点这些喜庆歌了,感谢楼主
回复 支持 反对

使用道具 举报

您需要登录后才可以回帖 登录 | 立即注册

本版积分规则

手机版|炫音音乐论坛 ( 皖ICP备13017420号-3 )皖公网安备 34082502000069号

GMT+8, 2019-6-25 14:06 , Processed in 0.077907 second(s), 26 queries , Gzip On.

Powered by Discuz! X3.4

© 2004-2017 炫音音乐论坛

快速回复 返回顶部 返回列表