查看: 880|回复: 99

[怀旧经典] [原抓] 轻音乐舞曲 《 夏威夷吉他 》 新加坡荣星 [FLAC/百度云]

  [复制链接]
发表于 2019-1-4 00:20:54 | 显示全部楼层 |阅读模式
本帖最后由 colinkfo 于 2019-1-4 00:21 编辑

co_wm.jpg




专辑名称: 夏威夷吉他
专辑音乐: 轻音乐舞曲
出品公司: 荣星制作公司 (新加坡)
唱片编号: YSCD 3149



专辑曲目:

01. 俩相依
02. 谁来爱我
03. 又是黄昏
04. 明月千里寄相思
05. 恨海
06. 梦难留
07. 遥远寄相思
08. 夜归人
09. 忆良人
10. 秋词
11. 不了情
12. 海角天涯
13. 欲走还留
14. 如果没有你
15. 含羞草
16. 唱首情歌给谁听
17. 街灯下
18. 爱你爱在心坎里
19. 初恋女
20. 生命如花篮






试曲 : 秋词




游客,如果您要查看本帖隐藏内容请回复,如果您想免回复、免金币,直接查看内容,请开通炫音VIP

轻音乐舞曲 - 夏威夷吉他__文件密码.rar

156 Bytes, 下载次数: 86

售价: 1 金币  [记录]

评分

参与人数 1音符 +5 金币 +5 收起 理由
wufeng + 5 + 5

查看全部评分

 楼主| 发表于 2019-1-4 00:22:36 | 显示全部楼层
Exact Audio Copy V1.1 from 23. June 2015

EAC 抓取日志文件从12. 一月 2017, 0:55

未知艺术家 / 夏威夷吉他

使用驱动器  :HL-DT-STDVDRAM GP30NB20   Adapter: 1  ID: 0

读取模式      : 可靠Secure
使用精确流     : 是
清空音频缓存    : 是
使用 C2 指示器 : 否

读取偏移校正:               : 0
读取 Lead-In 和 Lead-Out : 否
用静音填充抓取中丢失偏移的采样       : 是
去除首尾静音块               : 否
在CRC 计算中使用了空样本       : 是
已用接口                  : Win NT 及 2000 本地 Win32 接口

所用输出模式:   : 用户定义的编码器
已选比特率     : 896 kBit/s
质量        : 高
添加 ID3 标签 : 否
命令行压缩器    : C:\Program Files\Exact Audio Copy\FLAC\FLAC.EXE
附加命令行参数:  : -8 -V -T "Date=%year%" -T "Genre=%genre%" -T "COMMENT=ripped by Colinkfo;" %source%


已抓取 CD 的 TOC

     音轨 |    起始    |    长度    |  起始扇区  |  结束扇区  
    --------------------------------------------
      1 |  0:00.00 |  2:47.68 |      0 |  12592
      2 |  2:47.68 |  3:57.18 |  12593 |  30385
      3 |  6:45.11 |  2:59.18 |  30386 |  43828
      4 |  9:44.29 |  3:01.51 |  43829 |  57454
      5 | 12:46.05 |  3:20.62 |  57455 |  72516
      6 | 16:06.67 |  3:38.45 |  72517 |  88911
      7 | 19:45.37 |  2:54.01 |  88912 | 101962
      8 | 22:39.38 |  3:23.60 | 101963 | 117247
      9 | 26:03.23 |  3:28.37 | 117248 | 132884
     10 | 29:31.60 |  3:02.67 | 132885 | 146601
     11 | 32:34.52 |  3:08.35 | 146602 | 160736
     12 | 35:43.12 |  3:23.21 | 160737 | 175982
     13 | 39:06.33 |  3:08.61 | 175983 | 190143
     14 | 42:15.19 |  3:07.58 | 190144 | 204226
     15 | 45:23.02 |  3:42.19 | 204227 | 220895
     16 | 49:05.21 |  3:17.40 | 220896 | 235710
     17 | 52:22.61 |  3:03.70 | 235711 | 249505
     18 | 55:26.56 |  3:26.18 | 249506 | 264973
     19 | 58:52.74 |  3:47.72 | 264974 | 282070
     20 | 62:40.71 |  3:00.19 | 282071 | 295589


范围状态及错误

已选择范围

     文件名 H:\New Folder\未知艺术家 - 夏威夷吉他.wav

     峰值电平 96.9 %
     抓取速度 4.1 X
     范围质量 99.9 %
     复制 CRC 0033EC35
     复制成功

没有错误发生

状态报告结尾

==== 记录校验日志 C4A5F8D121144FC4A1A63B354B60D08C653E09E3F91337A9778110CE95AC0ECB ====
回复 支持 反对

使用道具 举报

发表于 2019-1-4 02:04:40 | 显示全部楼层
值得下载躐主
回复 支持 反对

使用道具 举报

发表于 2019-1-4 05:11:25 | 显示全部楼层
非常棒哈哈哈或寻寻
回复 支持 反对

使用道具 举报

发表于 2019-1-4 06:20:10 | 显示全部楼层
谢谢分享美妙音乐!
回复 支持 反对

使用道具 举报

发表于 2019-1-4 06:38:57 | 显示全部楼层
收藏聆听,谢谢分享
回复 支持 反对

使用道具 举报

发表于 2019-1-4 07:39:56 | 显示全部楼层
谢谢楼主分享如此动听音乐!!!
回复 支持 反对

使用道具 举报

发表于 2019-1-4 07:57:26 | 显示全部楼层
谢谢楼主分享!
回复 支持 反对

使用道具 举报

已抛锚 成长值: 5560

发表于 2019-1-4 08:19:21 | 显示全部楼层
长时间没来看了 ~~
回复 支持 反对

使用道具 举报

发表于 2019-1-4 08:23:33 | 显示全部楼层
非常棒的吉他试音天碟~~感谢和支持楼主~~
回复 支持 反对

使用道具 举报

发表于 2019-1-4 08:37:40 | 显示全部楼层
谢谢分享轻音乐舞曲
回复 支持 反对

使用道具 举报

发表于 2019-1-4 08:46:56 | 显示全部楼层
个人很是喜欢听这吉它曲。
回复 支持 反对

使用道具 举报

发表于 2019-1-4 08:51:58 | 显示全部楼层
不错!欣赏一下!谢谢楼主分享!
回复 支持 反对

使用道具 举报

发表于 2019-1-4 09:08:31 | 显示全部楼层
谢谢楼主分享!
回复 支持 反对

使用道具 举报

您需要登录后才可以回帖 登录 | 立即注册

本版积分规则

手机版|炫音音乐论坛 ( 皖ICP备13017420号-3 )皖公网安备 34082502000069号

GMT+8, 2019-1-24 12:52 , Processed in 0.080035 second(s), 24 queries , Gzip On.

Powered by Discuz! X3.4

© 2004-2017 炫音音乐论坛

快速回复 返回顶部 返回列表