查看: 1691|回复: 188

[怀旧经典] [原抓] 萨克斯风演奏 《 恨不相逢未嫁时 》 新加坡荣机构 [FLAC/百度云]

  [复制链接]
发表于 2019-1-6 00:27:03 | 显示全部楼层 |阅读模式
本帖最后由 colinkfo 于 2019-1-6 00:35 编辑

cover_wm.jpg


专辑名称:恨不相逢未嫁时  
专辑音乐:萨克斯风演奏
出品公司:新加坡荣机构
专辑编号:YRCD 92-102



01. 恨不相逢未嫁时
02. 月光小夜曲
03. 痴痴的等
04. 三年
05. 庭院深深
06. 岷江夜曲
07. 何日君再来
08. 几度花落时
09. 梦里相思
10. 月满西楼
11. 祈祷
12. 绿岛小夜曲
13. 友情
14. 爱的故事
15. 多少柔情多少泪
16. 一曲未了情
17. 昨夜梦醒时
18. 谁来爱我






试曲 : 多少柔情多少泪



游客,如果您要查看本帖隐藏内容请回复,如果您想免回复、免金币,直接查看内容,请开通炫音VIP

萨克斯风演奏 - 恨不相逢未嫁时__文件密码.rar

177 Bytes, 下载次数: 116

售价: 1 金币  [记录]

评分

参与人数 1音符 +5 金币 +5 收起 理由
wufeng + 5 + 5 炫音因你而精彩!

查看全部评分

 楼主| 发表于 2019-1-6 00:28:57 | 显示全部楼层
Exact Audio Copy V1.1 from 23. June 2015

EAC 抓取日志文件从14. 十二月 2016, 2:44

萨克斯风SAX演奏 / 恨不相逢未嫁时

使用驱动器  :HL-DT-STDVDRAM GP30NB20   Adapter: 1  ID: 0

读取模式      : 可靠Secure
使用精确流     : 是
清空音频缓存    : 是
使用 C2 指示器 : 否

读取偏移校正:               : 0
读取 Lead-In 和 Lead-Out : 否
用静音填充抓取中丢失偏移的采样       : 是
去除首尾静音块               : 否
在CRC 计算中使用了空样本       : 是
已用接口                  : Win NT 及 2000 本地 Win32 接口

所用输出模式:   : 用户定义的编码器
已选比特率     : 896 kBit/s
质量        : 高
添加 ID3 标签 : 否
命令行压缩器    : C:\Program Files\Exact Audio Copy\FLAC\FLAC.EXE
附加命令行参数:  : -8 -V -T "Date=%year%" -T "Genre=%genre%" -T "COMMENT=ripped by Colinkfo;" %source%


已抓取 CD 的 TOC

     音轨 |    起始    |    长度    |  起始扇区  |  结束扇区  
    --------------------------------------------
      1 |  0:00.00 |  4:49.10 |      0 |  21684
      2 |  4:49.10 |  2:54.55 |  21685 |  34789
      3 |  7:43.65 |  4:55.22 |  34790 |  56936
      4 | 12:39.12 |  3:37.00 |  56937 |  73211
      5 | 16:16.12 |  3:35.58 |  73212 |  89394
      6 | 19:51.70 |  4:24.60 |  89395 | 109254
      7 | 24:16.55 |  3:44.15 | 109255 | 126069
      8 | 28:00.70 |  3:25.52 | 126070 | 141496
      9 | 31:26.47 |  3:50.20 | 141497 | 158766
     10 | 35:16.67 |  2:55.25 | 158767 | 171916
     11 | 38:12.17 |  3:22.40 | 171917 | 187106
     12 | 41:34.57 |  3:48.00 | 187107 | 204206
     13 | 45:22.57 |  2:38.10 | 204207 | 216066
     14 | 48:00.67 |  3:43.20 | 216067 | 232811
     15 | 51:44.12 |  3:20.08 | 232812 | 247819
     16 | 55:04.20 |  2:55.32 | 247820 | 260976
     17 | 57:59.52 |  3:12.30 | 260977 | 275406
     18 | 61:12.07 |  3:46.00 | 275407 | 292356


范围状态及错误

已选择范围

     文件名 F:\New Folder\萨克斯风SAX演奏 - 恨不相逢未嫁时.wav

     峰值电平 100.0 %
     抓取速度 5.0 X
     范围质量 100.0 %
     复制 CRC 48224C52
     复制成功

没有错误发生

状态报告结尾

==== 记录校验日志 528B51D631F4475A57984D57E1E8070E48E6F8531AECB1AB0D19074075D90C76 ====

评分

参与人数 1音符 +5 炫币 +5 收起 理由
樱樱 + 5 + 5 炫音因你而精彩!

查看全部评分

回复 支持 反对

使用道具 举报

发表于 2019-1-6 07:08:22 | 显示全部楼层
感谢楼主分享,很好听。
回复 支持 反对

使用道具 举报

发表于 2019-1-6 07:35:38 | 显示全部楼层
感谢分享,支持发帖。
回复 支持 反对

使用道具 举报

发表于 2019-1-6 07:37:10 | 显示全部楼层
感谢分享,支持发帖。
回复 支持 反对

使用道具 举报

发表于 2019-1-6 07:52:34 | 显示全部楼层
不错的专辑
回复 支持 反对

使用道具 举报

发表于 2019-1-6 07:52:55 来自手机 | 显示全部楼层
这个好,感谢无私分享,早上好!
回复 支持 反对

使用道具 举报

发表于 2019-1-6 07:58:35 | 显示全部楼层
收藏了,谢谢
回复 支持 反对

使用道具 举报

发表于 2019-1-6 09:28:23 | 显示全部楼层
感谢楼主分享,好听。
回复 支持 反对

使用道具 举报

发表于 2019-1-6 09:31:11 | 显示全部楼层
感谢楼主分享。
回复 支持 反对

使用道具 举报

发表于 2019-1-6 09:33:12 | 显示全部楼层
多少柔情多少泪
回复 支持 反对

使用道具 举报

发表于 2019-1-6 09:57:55 | 显示全部楼层
美妙的声音,非常好听。一定下载,感谢
回复 支持 反对

使用道具 举报

发表于 2019-1-6 10:01:58 | 显示全部楼层
感谢分享,支持发帖。
回复 支持 反对

使用道具 举报

发表于 2019-1-6 10:08:45 | 显示全部楼层
感谢楼主分享
回复 支持 反对

使用道具 举报

发表于 2019-1-6 10:10:47 | 显示全部楼层
好听的萨克斯风演奏专辑,安贵辛苦了。谢谢
回复 支持 反对

使用道具 举报

您需要登录后才可以回帖 登录 | 立即注册

本版积分规则

手机版|炫音音乐论坛 ( 皖ICP备13017420号-3 )皖公网安备 34082502000069号

GMT+8, 2019-2-23 06:37 , Processed in 0.091071 second(s), 26 queries , Gzip On.

Powered by Discuz! X3.4

© 2004-2017 炫音音乐论坛

快速回复 返回顶部 返回列表