查看: 741|回复: 87

[怀旧经典] [原抓] 怀旧轻音乐 《 小提琴.钢琴合奏曲 》 皇星全音 [FLAC/百度云]

  [复制链接]
发表于 2019-1-12 00:06:17 | 显示全部楼层 |阅读模式
本帖最后由 colinkfo 于 2019-1-12 00:08 编辑

cover_wm.jpg


专辑名称: 小提琴.钢琴合奏曲
专辑音乐: 怀旧轻音乐
出品公司: 皇星全音 (新加坡)
唱片编号: GCD 2042



01.月光小夜曲
02.夜来香
03.何日君再来
04.心声泪痕
05.泪的小雨
06.几时再回头
07.蓝色的梦
08.我有一段情
09.负心的人
10.魂萦旧梦
11.我在你左右
12.情人的眼泪
13.绿岛小夜曲
14.晚霞
15.行船的人
16.心事谁人知






试曲 : 月光小夜曲


back_wm.jpg



游客,如果您要查看本帖隐藏内容请回复,如果您想免回复、免金币,直接查看内容,请开通炫音VIP

怀旧轻音乐 - 小提琴, 钢琴合奏曲__文件密码.rar

177 Bytes, 下载次数: 78

售价: 1 金币  [记录]

评分

参与人数 1音符 +5 金币 +5 收起 理由
wufeng + 5 + 5 炫音因你而精彩!

查看全部评分

 楼主| 发表于 2019-1-12 00:09:46 | 显示全部楼层
Exact Audio Copy V1.1 from 23. June 2015

EAC 抓取日志文件从21. 七月 2017, 15:29

- / 小提琴, 钢琴合奏曲

使用驱动器  :HL-DT-STDVDRAM GP30NB20   Adapter: 1  ID: 0

读取模式      : 可靠Secure
使用精确流     : 是
清空音频缓存    : 是
使用 C2 指示器 : 否

读取偏移校正:               : 6
读取 Lead-In 和 Lead-Out : 否
用静音填充抓取中丢失偏移的采样       : 是
去除首尾静音块               : 否
在CRC 计算中使用了空样本       : 是
已用接口                  : Win NT 及 2000 本地 Win32 接口

所用输出模式:   : 用户定义的编码器
已选比特率     : 896 kBit/s
质量        : 高
添加 ID3 标签 : 否
命令行压缩器    : C:\Program Files\Exact Audio Copy\FLAC\FLAC.EXE
附加命令行参数:  : -8 -V -T "Date=%year%" -T "Genre=%genre%" -T "COMMENT=ripped by Colinkfo;" %source%


已抓取 CD 的 TOC

     音轨 |    起始    |    长度    |  起始扇区  |  结束扇区  
    --------------------------------------------
      1 |  0:00.00 |  3:15.08 |      0 |  14632
      2 |  3:15.08 |  3:08.57 |  14633 |  28789
      3 |  6:23.65 |  2:51.45 |  28790 |  41659
      4 |  9:15.35 |  3:11.20 |  41660 |  56004
      5 | 12:26.55 |  3:39.45 |  56005 |  72474
      6 | 16:06.25 |  3:25.60 |  72475 |  87909
      7 | 19:32.10 |  3:05.55 |  87910 | 101839
      8 | 22:37.65 |  3:32.73 | 101840 | 117812
      9 | 26:10.63 |  3:34.60 | 117813 | 133922
     10 | 29:45.48 |  3:00.47 | 133923 | 147469
     11 | 32:46.20 |  3:22.65 | 147470 | 162684
     12 | 36:09.10 |  3:01.63 | 162685 | 176322
     13 | 39:10.73 |  2:54.55 | 176323 | 189427
     14 | 42:05.53 |  3:13.12 | 189428 | 203914
     15 | 45:18.65 |  3:18.23 | 203915 | 218787
     16 | 48:37.13 |  3:23.15 | 218788 | 234027


范围状态及错误

已选择范围

     文件名 H:\New Folder\小提琴, 钢琴合奏曲.wav

     峰值电平 100.0 %
     抓取速度 2.9 X
     范围质量 100.0 %
     复制 CRC 2CC0D8F5
     复制成功

没有错误发生


AccurateRip 摘要

音轨  1  精确地校准抓取  2)  [C035E769]  (AR v1)
音轨  2  精确地校准抓取  2)  [24136D6D]  (AR v1)
音轨  3  精确地校准抓取  2)  [C65E641C]  (AR v1)
音轨  4  精确地校准抓取  2)  [B592AB88]  (AR v1)
音轨  5  精确地校准抓取  2)  [2263ED9F]  (AR v1)
音轨  6  精确地校准抓取  2)  [5412FFD7]  (AR v1)
音轨  7  精确地校准抓取  2)  [5A7AC7DA]  (AR v1)
音轨  8  精确地校准抓取  2)  [9225EE63]  (AR v1)
音轨  9  精确地校准抓取  2)  [387A47E0]  (AR v1)
音轨 10  精确地校准抓取  2)  [8C3A6D69]  (AR v1)
音轨 11  精确地校准抓取  2)  [5529076D]  (AR v1)
音轨 12  精确地校准抓取  2)  [7B7FEABB]  (AR v1)
音轨 13  精确地校准抓取  2)  [0E27C85B]  (AR v1)
音轨 14  精确地校准抓取  2)  [138C0F53]  (AR v1)
音轨 15  精确地校准抓取  2)  [6821B1AA]  (AR v1)
音轨 16  精确地校准抓取  2)  [D4BBDAE6]  (AR v1)

所有音轨精确校准抓取

状态报告结尾

==== 记录校验日志 373BA8684D1054B2DD5A7667BDCDF554FE624FCAE71A7C6747E93DC35F09E57E ====
回复 支持 反对

使用道具 举报

发表于 2019-1-12 00:49:12 | 显示全部楼层
感谢分享,下载试听
回复 支持 反对

使用道具 举报

已抛锚 成长值: 5560

发表于 2019-1-12 05:04:23 | 显示全部楼层
我的啦嘿嘿
回复 支持 反对

使用道具 举报

发表于 2019-1-12 08:14:33 | 显示全部楼层

Exact Audio Copy V1.1 from 23. June 2015

EAC 抓取日志文件从21. 七月 2017,
回复 支持 反对

使用道具 举报

发表于 2019-1-12 08:47:50 | 显示全部楼层
谢谢分享好听的音乐
回复 支持 反对

使用道具 举报

发表于 2019-1-12 09:27:28 | 显示全部楼层
怀旧轻音乐
回复 支持 反对

使用道具 举报

发表于 2019-1-12 09:57:34 | 显示全部楼层
谢谢分享谢谢分享!!!
回复 支持 反对

使用道具 举报

发表于 2019-1-12 10:01:44 | 显示全部楼层
经典中的经典不朽名曲,多谢楼主分享。
回复 支持 反对

使用道具 举报

发表于 2019-1-12 10:03:21 | 显示全部楼层
谢谢楼主分享
回复 支持 反对

使用道具 举报

发表于 2019-1-12 10:34:11 | 显示全部楼层
不错的专辑
回复 支持 反对

使用道具 举报

发表于 2019-1-12 12:27:07 | 显示全部楼层
美妙 的音乐,令人陶醉!
回复 支持 反对

使用道具 举报

发表于 2019-1-12 13:24:08 | 显示全部楼层
怀旧轻音乐..............
回复 支持 反对

使用道具 举报

发表于 2019-1-12 14:10:17 | 显示全部楼层
非常喜欢!谢谢楼主的分享
回复 支持 反对

使用道具 举报

您需要登录后才可以回帖 登录 | 立即注册

本版积分规则

手机版|炫音音乐论坛 ( 皖ICP备13017420号-3 )皖公网安备 34082502000069号

GMT+8, 2019-1-24 13:03 , Processed in 0.074844 second(s), 24 queries , Gzip On.

Powered by Discuz! X3.4

© 2004-2017 炫音音乐论坛

快速回复 返回顶部 返回列表