查看: 558|回复: 35

[华语流行] [原抓] 群星 《 精粹日本译曲 》 新加坡华声 [FLAC/百度云]

[复制链接]
发表于 2019-1-12 00:25:32 | 显示全部楼层 |阅读模式
本帖最后由 colinkfo 于 2019-1-12 00:35 编辑

co_wm.jpg



专辑名称: 精粹日本译曲
专辑歌手: 群星
发行公司: 华声录音机构 (新加坡)
专辑编号: VMPCD 9820-06



01. 追梦 - 江梦蕾
02. 可爱的人生 - 青山
03. 苹果花 - 罗美真
04. 层层相思  -姚乙
05. 爱的礼物 - 潘秀琼
06. 夜行列车 - 唐尼
07. 往事 - 樱花
08. 是谁抢走我的爱人 - 康乔
09. 天涯芳草 - 江梦蕾
10. 故乡之歌 - 唐尼
11. 星夜的离别 - 潘秀琼
12. 珊瑚恋 - 康乔
13. 三个梦 - 罗美真
14. 寻梦园 - 青山
15. 爱你爱你 - 樱花
16. 梦在你怀中 - 江梦蕾






试曲 : 苹果花 - 罗美真


游客,如果您要查看本帖隐藏内容请回复,如果您想免回复、免金币,直接查看内容,请开通炫音VIP



群星 - 精粹日本译曲__文件密码.rar

176 Bytes, 下载次数: 25

售价: 1 金币  [记录]

 楼主| 发表于 2019-1-12 00:29:12 | 显示全部楼层
Exact Audio Copy V1.1 from 23. June 2015

EAC 抓取日志文件从11. 六月 2017, 4:35

群星 / 精粹日本译曲

使用驱动器  :HL-DT-STDVDRAM GP30NB20   Adapter: 1  ID: 0

读取模式      : 可靠Secure
使用精确流     : 是
清空音频缓存    : 是
使用 C2 指示器 : 否

读取偏移校正:               : 6
读取 Lead-In 和 Lead-Out : 否
用静音填充抓取中丢失偏移的采样       : 是
去除首尾静音块               : 否
在CRC 计算中使用了空样本       : 是
已用接口                  : Win NT 及 2000 本地 Win32 接口

所用输出模式:   : 用户定义的编码器
已选比特率     : 896 kBit/s
质量        : 高
添加 ID3 标签 : 否
命令行压缩器    : C:\Program Files\Exact Audio Copy\FLAC\FLAC.EXE
附加命令行参数:  : -8 -V -T "Date=%year%" -T "Genre=%genre%" -T "COMMENT=ripped by Colinkfo;" %source%


已抓取 CD 的 TOC

     音轨 |    起始    |    长度    |  起始扇区  |  结束扇区  
    --------------------------------------------
      1 |  0:00.30 |  3:36.12 |     30 |  16241
      2 |  3:36.42 |  3:41.31 |  16242 |  32847
      3 |  7:17.73 |  3:46.18 |  32848 |  49815
      4 | 11:04.16 |  3:55.51 |  49816 |  67491
      5 | 14:59.67 |  2:48.08 |  67492 |  80099
      6 | 17:48.00 |  2:59.55 |  80100 |  93579
      7 | 20:47.55 |  2:37.70 |  93580 | 105424
      8 | 23:25.50 |  4:01.38 | 105425 | 123537
      9 | 27:27.13 |  3:52.59 | 123538 | 140996
     10 | 31:19.72 |  2:33.74 | 140997 | 152545
     11 | 33:53.71 |  3:44.01 | 152546 | 169346
     12 | 37:37.72 |  3:43.72 | 169347 | 186143
     13 | 41:21.69 |  3:49.59 | 186144 | 203377
     14 | 45:11.53 |  3:17.56 | 203378 | 218208
     15 | 48:29.34 |  2:54.38 | 218209 | 231296
     16 | 51:23.72 |  3:51.52 | 231297 | 248673


范围状态及错误

已选择范围

     文件名 H:\New Folder\群星 - 精粹日本译曲.wav

     峰值电平 100.0 %
     抓取速度 1.9 X
     范围质量 99.9 %
     复制 CRC 8BFA10C9
     复制成功

没有错误发生


AccurateRip 摘要

音轨  1  在数据库中不存在
音轨  2  在数据库中不存在
音轨  3  在数据库中不存在
音轨  4  在数据库中不存在
音轨  5  在数据库中不存在
音轨  6  在数据库中不存在
音轨  7  在数据库中不存在
音轨  8  在数据库中不存在
音轨  9  在数据库中不存在
音轨 10  在数据库中不存在
音轨 11  在数据库中不存在
音轨 12  在数据库中不存在
音轨 13  在数据库中不存在
音轨 14  在数据库中不存在
音轨 15  在数据库中不存在
音轨 16  在数据库中不存在

没有任何音轨在 AccurateRip 数据库中有记录

状态报告结尾

==== 记录校验日志 294FF1628320EAEC593E9F8C3C0847385E298F894F9EF3A177E3822E0A613925 ====
回复 支持 反对

使用道具 举报

发表于 2019-1-12 01:10:02 | 显示全部楼层
有趣的碟!新加坡出品的翻唱日本歌选集非常难得,集合了一帮以往好手,尤其是想听樱花的歌,很难找!

点评

谢谢支持!  发表于 2019-1-12 01:17
回复 支持 反对

使用道具 举报

发表于 2019-1-12 01:23:18 | 显示全部楼层
值缧下载谢梯主
回复 支持 反对

使用道具 举报

发表于 2019-1-12 08:15:13 | 显示全部楼层
日本原曲的歌曲,都是非常经典的,谢谢!
回复 支持 反对

使用道具 举报

发表于 2019-1-12 10:15:03 | 显示全部楼层
可惜没有金币,下载不了

点评

有收到短讯吗  发表于 2019-1-12 14:09
回复 支持 反对

使用道具 举报

发表于 2019-1-12 11:33:33 | 显示全部楼层
THANK YOU VERY MUCH
回复 支持 反对

使用道具 举报

发表于 2019-1-12 11:49:45 | 显示全部楼层
精粹日本译曲,谢谢分享!
回复 支持 反对

使用道具 举报

发表于 2019-1-12 14:59:23 | 显示全部楼层
下来听听,谢谢。
回复 支持 反对

使用道具 举报

发表于 2019-1-12 15:15:11 | 显示全部楼层
都是非常经典的,谢谢!
回复 支持 反对

使用道具 举报

发表于 2019-1-12 16:29:56 | 显示全部楼层
日本译曲,谢谢分享!
回复 支持 反对

使用道具 举报

发表于 2019-1-12 16:36:10 | 显示全部楼层
都是非常经典的,谢谢!
回复 支持 反对

使用道具 举报

发表于 2019-1-12 17:38:43 | 显示全部楼层
谢谢楼主辛苦了
回复 支持 反对

使用道具 举报

发表于 2019-1-12 20:03:45 | 显示全部楼层
楼主,费心啊,稀罕的资源。
回复 支持 反对

使用道具 举报

发表于 2019-1-12 21:47:59 | 显示全部楼层
樓主太厲害了!
回复 支持 反对

使用道具 举报

您需要登录后才可以回帖 登录 | 立即注册

本版积分规则

手机版|炫音音乐论坛 ( 皖ICP备13017420号-3 )皖公网安备 34082502000069号

GMT+8, 2019-1-24 12:52 , Processed in 0.075781 second(s), 24 queries , Gzip On.

Powered by Discuz! X3.4

© 2004-2017 炫音音乐论坛

快速回复 返回顶部 返回列表